Сегодня идет свободное скачивание без начисления Download

Отец Браун / Патер Браун / Father Brown (2014) HDTVRip [720p] (Сезон 2 / Серии 1-10 из 10) Райдо

Ответить на тему
 
Автор
Сообщение

Omen ®

Стаж: 5 лет 9 месяцев

Сообщений: 184433

Торрент-статистика

Пост 11-Май-2014 16:11

[Цитировать]

Отец Браун / Патер Браун / Father Brown- Год выпуска: 2014
Страна: Великобритания
Жанр: драма, детектив
Перевод: Двухголосый закадровый, любительский - студия Райдо
Режиссер: Мэтт Картер
Актеры: Марк Уильямс, Хьюго Спир, Сорча Кьюсак, Нэнси Кэролл, Алекс Прайс и др.
Описание фильма:
Продолжение замечательного детектива о расследованиях провинциального священника патера Брауна по произведениям классика английской литературы Гилберта Кита Честертона. Вас ждут прелестнейшие виды английской глубинки середины прошлого века, приятный диалоги и запутаннейшие сюжеты, из которых находчивый патер выходит с неизменным достоинством, благородством и юмором.
Сэмпл
Продолжительность: ~00:44:00 серия
Качество видео: HDTVRip 720p
Видеокодек: AVC
Формат: MKV
Битрейт видео: ~2128 kb/s
Размер кадра: 1280x720 (16:9)
Аудио Rus: (AC-3, 48,0 kHz, 2 ch, 192 kb/s) - двухголосый закадровый
Аудио Eng: (AC-3, 48,0 kHz, 2 ch, 192 kb/s) - оригинал

MediaInfo

Общее
Уникальный идентификатор : 175596151925612401778520409907444322505 (0x841A96B5C826939BA5A09785115810C9)
Полное имя : D:\Отец Браун (Сезон 2) Father Brown (2014) HDTVRip 720p - Райдо\father.brown.2014.s02e01.720p.hdtv.x264.mkv
Формат : Matroska
Версия формата : Version 4 / Version 2
Размер файла : 819 Мбайт
Продолжительность : 44 м.
Общий поток : 2563 Кбит/сек
Дата кодирования : UTC 2014-01-19 13:52:32
Программа кодирования : mkvmerge v6.7.0 ('Back to the Ground') 64bit built on Jan 8 2014 15:10:52
Библиотека кодирования : libebml v1.3.0 + libmatroska v1.4.1
Видео
Идентификатор : 1
Формат : AVC
Формат/Информация : Advanced Video Codec
Профиль формата : [url=mailto:High@L4.1]High@L4.1[/url]
Параметр CABAC формата : Да
Параметр ReFrames формата : 5 кадров
Идентификатор кодека : V_MPEG4/ISO/AVC
Продолжительность : 44 м.
Битрейт : 2128 Кбит/сек
Ширина : 1280 пикселей
Высота : 720 пикселей
Соотношение сторон : 16:9
Режим частоты кадров : Постоянный
Частота кадров : 25,000 кадров/сек
Цветовое пространство : YUV
Субдискретизация насыщенности : 4:2:0
Битовая глубина : 8 бит
Тип развёртки : Прогрессивная
Бит/(Пиксели*Кадры) : 0.092
Размер потока : 680 Мбайт (83%)
Библиотека кодирования : x264 core 140 r2377 1ca7bb9
Настройки программы : cabac=1 / ref=5 / deblock=1:0:0 / analyse=0x3:0x113 / me=umh / subme=8 / psy=1 / psy_rd=1.00:0.00 / mixed_ref=1 / me_range=16 / chroma_me=1 / trellis=1 / 8x8dct=1 / cqm=0 / deadzone=21,11 / fast_pskip=1 / chroma_qp_offset=-2 / threads=12 / lookahead_threads=2 / sliced_threads=0 / nr=0 / decimate=1 / interlaced=0 / bluray_compat=0 / constrained_intra=0 / bframes=3 / b_pyramid=2 / b_adapt=2 / b_bias=0 / direct=3 / weightb=1 / open_gop=0 / weightp=2 / keyint=250 / keyint_min=25 / scenecut=40 / intra_refresh=0 / rc_lookahead=50 / rc=crf / mbtree=1 / crf=18.0 / qcomp=0.60 / qpmin=0 / qpmax=69 / qpstep=4 / ip_ratio=1.40 / aq=1:1.00
Язык : English
Default : Да
Forced : Нет
Коэффициенты матрицы : BT.709
Аудио #1
Идентификатор : 2
Формат : AC-3
Формат/Информация : Audio Coding 3
Расширение режима : CM (complete main)
Параметр Endianness формата : Big
Идентификатор кодека : A_AC3
Продолжительность : 44 м.
Вид битрейта : Постоянный
Битрейт : 192 Кбит/сек
Каналы : 2 канала
Расположение каналов : Front: L R
Частота : 48,0 КГц
Битовая глубина : 16 бит
Метод сжатия : С потерями
Размер потока : 61,4 Мбайт (7%)
Заголовок : Brown-RUS
Язык : Russian
Default : Да
Forced : Нет
Аудио #2
Идентификатор : 3
Формат : AC-3
Формат/Информация : Audio Coding 3
Расширение режима : CM (complete main)
Параметр Endianness формата : Big
Идентификатор кодека : A_AC3
Продолжительность : 44 м.
Вид битрейта : Постоянный
Битрейт : 192 Кбит/сек
Каналы : 2 канала
Расположение каналов : Front: L R
Частота : 48,0 КГц
Битовая глубина : 16 бит
Метод сжатия : С потерями
Размер потока : 61,4 Мбайт (7%)
Заголовок : Brown-ENG
Язык : English
Default : Нет
Forced : Нет
Скриншоты:
       
       
Вне форума [Профиль] [ЛС]
Показать сообщения:    
Ответить на тему

Текущее время: Сегодня 03:14

Часовой пояс: GMT + 3



Вы не можете начинать темы
Вы не можете отвечать на сообщения
Вы не можете редактировать свои сообщения
Вы не можете удалять свои сообщения
Вы не можете голосовать в опросах
Вы не можете прикреплять файлы к сообщениям
Вы не можете скачивать файлы