Сегодня идет свободное скачивание без начисления Download

24 часа: Проживи еще один день / 24: Live Another Day (2014) WEB-DLRip (Сезон 1, серии 1-2 из 12) Jaskier (Обновляемая)

Ответить на тему
 
Автор
Сообщение

Omen ®

Стаж: 5 лет 6 месяцев

Сообщений: 186946

Торрент-статистика

Пост 09-Май-2014 23:01

[Цитировать]

24 часа: Проживи еще один день - Год выпуска: 2014
Жанр: Боевик, Триллер, Драма, Детектив
Перевод: Многоголосый закадровый, профессиональный - Jaskier
Вид субтитров: Отсутствуют

Дата мировой премьеры: 5 мая 2014
Режиссер: Джон Кассар, Брэд Тёрнер, Брайан Спайсер
Актеры: Кифер Сазерленд, Мэри Линн Райскаб, Ким Рейвер, Уильям Девайн, Ивонн Страховски, Мишель Фэйерли, Жиль Мэтти, Гбенга Акиннагбе, Бенджамин Брэтт, Стивен Фрай
Описание фильма:
Прошло 4 года после событий восьмого дня оригинального сериала «24 часа». Действия разворачиваются в Лондоне, где готовится страшный теракт. Джек находится в бегах, его преследует ЦРУ, старые друзья теперь не на его стороне, но он готов пойти на все ради предотвращения теракта, который может изменить мир навсегда…
Продолжительность: ~00:44:00 серия
Качество видео: WEB-DLRip
Видеокодек: Xvid
Битрейт видео: ~1500 kb/s
Размер кадра: 720х400 (16:9)
Аудио: AC3, 2ch, 192 kb/sСэмпл
         

MediaInfo:

Код:
General
Complete name                            : G:\24.S09.WEB-DLRip-Jaskier\24.S09E01.WEB-DLRip-Jaskier.avi
Format                                   : AVI
Format/Info                              : Audio Video Interleave
File size                                : 540 MiB
Duration                                 : 44mn 20s
Overall bit rate                         : 1 701 Kbps
Writing application                      : VirtualDubMod 1.5.10.2 (build 2540/release)
Writing library                          : VirtualDubMod build 2540/release
Video
ID                                       : 0
Format                                   : MPEG-4 Visual
Format profile                           : Advanced Simple@L5
Format settings, BVOP                    : 2
Format settings, QPel                    : No
Format settings, GMC                     : No warppoints
Format settings, Matrix                  : Default (H.263)
Codec ID                                 : XVID
Codec ID/Hint                            : XviD
Duration                                 : 44mn 20s
Bit rate                                 : 1 500 Kbps
Width                                    : 720 pixels
Height                                   : 400 pixels
Display aspect ratio                     : 16:9
Frame rate                               : 23.976 fps
Color space                              : YUV
Chroma subsampling                       : 4:2:0
Bit depth                                : 8 bits
Scan type                                : Progressive
Compression mode                         : Lossy
Bits/(Pixel*Frame)                       : 0.217
Stream size                              : 476 MiB (88%)
Writing library                          : XviD 1.2.1 (UTC 2008-12-04)
Audio
ID                                       : 1
Format                                   : AC-3
Format/Info                              : Audio Coding 3
Mode extension                           : CM (complete main)
Format settings, Endianness              : Big
Codec ID                                 : 2000
Duration                                 : 44mn 20s
Bit rate mode                            : Constant
Bit rate                                 : 192 Kbps
Channel(s)                               : 2 channels
Channel positions                        : Front: L R
Sampling rate                            : 44.1 KHz
Bit depth                                : 16 bits
Compression mode                         : Lossy
Stream size                              : 60.8 MiB (11%)
Alignment                                : Split accross interleaves
Interleave, duration                     : 42 ms (1.00 video frame)
Interleave, preload duration             : 500 ms

Внимание! Раздача ведётся путём добавления новых серий

Внимание! Раздача ведётся путём добавления новых серий; при каждом добавлении создаётся новый торрент.
Чтобы начать докачку новой серии, пользователям необходимо сделать следующее:
1. Остановить скачивание;
2. Удалить старый торрент у себя из клиента (старые серии удалять не надо);
3. Скачать новый торрент и запустить его у себя в клиенте вместо старого, при этом указать клиенту путь в старую папку куда и должно происходить скачивание новых серий. Ваш клиент при этом должен произвести хеширование (проверку) старой папки и будет докачивать только те серии, которых у вас ещё нет. Старые серии при этом не удаляются, а продолжают раздаваться! Eсли вы уже удалили старые серии, то предотвратить повторную закачку старых серий можно, отжав галочку в соответствующих местах при запуске нового торрента.
Вне форума [Профиль] [ЛС]
Показать сообщения:    
Ответить на тему

Текущее время: Сегодня 01:59

Часовой пояс: GMT + 3



Вы не можете начинать темы
Вы не можете отвечать на сообщения
Вы не можете редактировать свои сообщения
Вы не можете удалять свои сообщения
Вы не можете голосовать в опросах
Вы не можете прикреплять файлы к сообщениям
Вы не можете скачивать файлы