Сегодня идет свободное скачивание без начисления Download

Укушенная / Bitten (Сезон 1 / полный / 13 серий) (Брэд Тернер / Brad Turner ...) [2014г., ужасы, фэнтези, драма, детектив, ..., WEB-DLRip, 720р] МVO LostFilm

Ответить на тему
 
Автор
Сообщение

Omen ®

Стаж: 5 лет 6 месяцев

Сообщений: 186946

Торрент-статистика

Пост 09-Май-2014 22:39

[Цитировать]

Укушенная / Bitten - Год выпуска: 2014
Жанр: Ужасы, Фэнтези, Драма
Выпущено: Канада
Перевод: Многоголосый закадровый, профессиональный - LostFilm
Субтитры: вшитые, отключаемые.
Язык субтитров: English

Дата мировой премьеры: 11 января 2014
Режиссер: Джеймс Даннисон, Пол Фокс, Энди Микита
Актеры: Лора Вандервурт Грейстон Холт Грег Брайк Пол Грин Стив Ланд Майкл Ксавьер Дженелл Уильямс Натали Браун Майкл Лакетт Фиона Хайет и др.
Описание фильма:
Сериал основан на серии романов канадской писательницы Келли Армстронг «Женщины иного мира».
Среди режиссеров нового шоу значатся такие опытные знатоки сериального делопроизводства и лауреаты многочисленных премий, как Пол Фокс («Красавица и чудовище»/Beauty and the Beast), Энди Микита («Перевозчик»/Transporter), Брэд Тернер («Спираль»/Helix). В комнате сценаристов работают тоже не новички: Грант Розенберг («Эврика»/Eureka), Уилл Паскоу и Диган Фрайклинд.
Елена (Лора Вандерворт («Визитеры»)) — единственная в мире женщина-оборотень. Она пытается жить обычной жизнью в Торонто, где работает фотографом, общается с друзьями, заводит отношения. Свою тайну Елена, разумеется, никому не открывает и со стаей давно не поддерживает никаких контактов. Но однажды в городе происходит событие, которое сулит вервольфам серьезные проблемы. Чтобы их избежать, оборотни должны объединить свои силы и найти того, кто перешел им дорогу.
Стая заявляется в город и выдергивает Елену из ее размеренной жизни. Теперь ей предстоит столкнуться с прошлым и, на время забыв про обычную жизнь, мобилизовать свою темную сторону, чтобы помочь стае разобраться с возникшей проблемой и сохранить собственные секреты...
Продолжительность: ~00:43:00 серия
Качество видео: WEB-DL 720р
Сэмпл: Скачать
Видеокодек: AVC (High@L3.1)
Битрейт видео: ~3910 Кбит/сек
Размер кадра: 1280x720 (16:9)
Аудио #1: AC-3, 48.0 KHz, 6 ch, 384 Kbps, CBR (Russian)
Аудио #2: AC-3, 48.0 KHz, 6 ch, 384 Kbps, CBR (English)
Скриншоты:
       
         

Список серий

01. Вызов (Summons)
02. Блудная дочь (Prodigal)
03. Вторжение (Trespass)
04. Горе (Grief)
05. Укушенная (Bitten)
06. Приверженец (Committed)
07. Слежка (Stalking)
08. Узник (Prisoner)
09. Отмщение (Vengeance)
10. Наследие (Descent)
11. Осадок (Settling)
12. В клетке (Caged)
13. Готовность (Ready)

MediaInfo

Общее
Уникальный идентификатор : 200925237229460154037899944691910786099 (0x9728CB085C7B405CB65F9AE5108B3C33)
Полное имя : E:\тест\Bitten.S01.720p.WEB-DL.Rus.Eng.Sub\Bitten.S01E01.720p.WEB-DL.Rus.Eng.Sub.mkv
Формат : Matroska
Версия формата : Version 4 / Version 2
Размер файла : 1,44 Гбайт
Продолжительность : 43 м.
Общий поток : 4773 Кбит/сек
Название фильма : Released by Marchelush
Дата кодирования : UTC 2014-01-15 02:19:30
Программа кодирования : mkvmerge v6.6.0 ('The Edge Of The In Between') built on Dec 1 2013 17:55:00
Библиотека кодирования : libebml v1.3.0 + libmatroska v1.4.1
Видео
Идентификатор : 1
Формат : AVC
Формат/Информация : Advanced Video Codec
Профиль формата : [url=mailto:High@L3.1]High@L3.1[/url]
Параметр CABAC формата : Нет
Параметр ReFrames формата : 2 кадра
Идентификатор кодека : V_MPEG4/ISO/AVC
Продолжительность : 43 м.
Битрейт : 3910 Кбит/сек
Ширина : 1280 пикселей
Высота : 720 пикселей
Соотношение сторон : 16:9
Режим частоты кадров : Постоянный
Частота кадров : 23,976 кадра/сек
Цветовое пространство : YUV
Субдискретизация насыщенности : 4:2:0
Битовая глубина : 8 бит
Тип развёртки : Прогрессивная
Бит/(Пиксели*Кадры) : 0.177
Размер потока : 1,18 Гбайт (82%)
Язык : English
Default : Да
Forced : Нет
Основные цвета : BT.709
Характеристики трансфера : BT.709
Коэффициенты матрицы : BT.709
Аудио #1
Идентификатор : 2
Формат : AC-3
Формат/Информация : Audio Coding 3
Расширение режима : CM (complete main)
Параметр Endianness формата : Big
Идентификатор кодека : A_AC3
Продолжительность : 43 м.
Вид битрейта : Постоянный
Битрейт : 384 Кбит/сек
Каналы : 6 каналов
Расположение каналов : Front: L C R, Side: L R, LFE
Частота : 48,0 КГц
Битовая глубина : 16 бит
Метод сжатия : С потерями
Размер потока : 119 Мбайт (8%)
Заголовок : LostFilm
Язык : Russian
Default : Да
Forced : Нет
Аудио #2
Идентификатор : 3
Формат : AC-3
Формат/Информация : Audio Coding 3
Расширение режима : CM (complete main)
Параметр Endianness формата : Big
Идентификатор кодека : A_AC3
Продолжительность : 43 м.
Вид битрейта : Постоянный
Битрейт : 384 Кбит/сек
Каналы : 6 каналов
Расположение каналов : Front: L C R, Side: L R, LFE
Частота : 48,0 КГц
Битовая глубина : 16 бит
Метод сжатия : С потерями
Размер потока : 119 Мбайт (8%)
Язык : English
Default : Нет
Forced : Нет
Текст
Идентификатор : 4
Формат : UTF-8
Идентификатор кодека : S_TEXT/UTF8
Идентификатор кодека/Информация : UTF-8 Plain Text
Язык : English
Default : Нет
Forced : Нет
Вне форума [Профиль] [ЛС]
Показать сообщения:    
Ответить на тему

Текущее время: Сегодня 00:07

Часовой пояс: GMT + 3



Вы не можете начинать темы
Вы не можете отвечать на сообщения
Вы не можете редактировать свои сообщения
Вы не можете удалять свои сообщения
Вы не можете голосовать в опросах
Вы не можете прикреплять файлы к сообщениям
Вы не можете скачивать файлы