Today is a free download without charge Download

(Synthpop, New Wave) Kraftwerk - Computer World - 1981 [Elektra/Asylum 9 3549-2 Longpack Edition], FLAC (image+.cue), lossless

Reply to topic
 
Author
Message

BiteFly ®

Gender:

Longevity: 8 years 2 months

Posts: 2138

Location: Germany-Russia

Торрент-статистика

Post 15-Dec-2011 17:49

[Quote]

Kraftwerk - Computer World- Жанр: Synthpop, New Wave
Страна-производитель диска: US
Год издания диска: 1981
Издатель (лейбл): Elektra
Номер по каталогу: 9 3549-2
Страна: Germany
Аудиокодек: FLAC (*.flac)
Тип рипа: image+.cue
Битрейт аудио: lossless
Продолжительность: 00:34:36
Наличие сканов в содержимом раздачи: да
Треклист:
01. Computer World (5:07)
02. Pocket Calculator (4:57)
03. Numbers (3:21)
04. Computer World . . 2 (3:19)
05. Computer Love (7:18)
06. Home Computer (6:19)
07. It's More Fun To Compute (4:12)

Лог создания рипа

Код:
Exact Audio Copy V1.0 beta 2 from 29. April 2011
Отчёт EAC об извлечении, выполненном 14. августа 2011, 17:40
Kraftwerk / Computer World (Elektra 9 3549-2 Longpack edition)
Дисковод: PLEXTOR CD-R   PREMIUM2   Adapter: 0  ID: 0
Режим чтения                 : Достоверность
Использование точного потока : Да
Отключение кэша аудио        : Да
Использование указателей C2  : Нет
Коррекция смещения при чтении                     : 30
Способность читать области Lead-in и Lead-out     : Да
Заполнение пропущенных сэмплов тишиной            : Да
Удаление блоков с тишиной в начале и конце        : Нет
При вычислениях CRC использовались нулевые сэмплы : Да
Интерфейс                                         : Встроенный Win32-интерфейс для Win NT/2000
Выходной формат : Внутренние WAV-операции
Формат сэмплов  : 44.100 Гц; 16 бит; стерео
TOC извлечённого CD
     Трек |   Старт  | Длительность | Начальный сектор | Конечный сектор
    ---------------------------------------------------------------------
       1  |  0:00.32 |    5:07.43   |          32      |      23099
       2  |  5:08.00 |    4:57.72   |       23100      |      45446
       3  | 10:05.72 |    3:21.30   |       45447      |      60551
       4  | 13:27.27 |    3:19.05   |       60552      |      75481
       5  | 16:46.32 |    7:18.18   |       75482      |     108349
       6  | 24:04.50 |    6:19.25   |      108350      |     136799
       7  | 30:24.00 |    4:12.17   |      136800      |     155716
Характеристики диапазона извлечения и сообщения об ошибках
Выбранный диапазон
     Имя файла F:\For /*spam*/\Kraftwerk - Computer World - 1981 (Elektra 9 3549-2 Longpack edition)\Kraftwerk - Computer World (Elektra 9 3549-2 Longpack edition).wav
     Пиковый уровень 99.6 %
     Скорость извлечения 1.9 X
     Качество диапазона 100.0 %
     CRC теста AC482EEB
     CRC копии AC482EEB
     Копирование... OK
Ошибок не произошло
AccurateRip: сводка
Трек  1  : извлечено точно (доверие 6)  [D2C17F60]  (AR v2)
Трек  2  : извлечено точно (доверие 7)  [0B97EBF6]  (AR v2)
Трек  3  : извлечено точно (доверие 7)  [1D714AC4]  (AR v2)
Трек  4  : извлечено точно (доверие 7)  [A03F2FAD]  (AR v2)
Трек  5  : извлечено точно (доверие 7)  [3B6E181F]  (AR v2)
Трек  6  : извлечено точно (доверие 6)  [561984FE]  (AR v2)
Трек  7  : извлечено точно (доверие 7)  [7CAF2F10]  (AR v2)
Все треки извлечены точно
Конец отчёта
==== Контрольная сумма отчёта 9321223E63D776930E0EA26A1A9D5EC414416AB121BF66EF4DFD60F0BF466809 ====
-

_________________
Other forum [Profile] [PM]
Display posts from previous:    
Reply to topic

The time now is: Today 18:43

All times are GMT + 3 Hours



You cannot post new topics in this forum
You cannot reply to topics in this forum
You cannot edit your posts in this forum
You cannot delete your posts in this forum
You cannot vote in polls in this forum
You cannot attach files in this forum
You cannot download files in this forum