Сегодня идет свободное скачивание без начисления Download

Алиса знает, что делать! (2013-2014) WEB-DLRip (Серии 1-10 из 24) [Обновляемая]

Ответить на тему
 
Автор
Сообщение

Omen ®

Стаж: 5 лет

Сообщений: 190529

Торрент-статистика

Пост 16-Апр-2014 21:17

[Цитировать]

Алиса знает, что делать! - Режиссер / Телекомпания:
Русское название: Алиса знает, что делать!
Год выпуска: 2013-2014
Жанр: Приключения, фантастика, мультипликация, мультсериал
Выпущено: Россия, Базелевс
Описание:
На Земле 2093 год. Приключения 12 летней московской школьницы из будущего Алисы Селезневой, героини фантастических повестей Кира Булычева, которые легли в основу популярного советского многосерийного фильма «Гостья из будущего», теперь продолжатся в анимационном сериале. При этом часть действий будет происходить в строящемся в Подмосковье иннограде «Сколково».
Режиссер: Игорь Ковалев
Актеры: Дарья Мельникова, Армен Джигарханян, Анна Ардова, Дмитрий Назаров, Алексей Колган, Ирина Гришина, Валерий Сторожик

Продолжительность: Каждая серия х 00:26:00
Видеокодек: XVID
Качество видео: WEB-DLRip
Битрейт видео: ~1683 kb/s
Размер кадра: 720 x 400
Аудиокодек: AC-3, 2.0ch.
Битрейт аудио: 192 kb/s

MediaInfo:

Формат : AVI
Формат/Информация : Audio Video Interleave
Размер файла : 351 Мбайт
Продолжительность : 26 м.
Общий поток : 1887 Кбит/сек
Программа кодирования : VirtualDubMod 1.5.10.3 | (build 2550/release)
Библиотека кодирования : VirtualDubMod build 2550/release
Видео
Идентификатор : 0
Формат : MPEG-4 Visual
Профиль формата : Advanced Simple@L5
Параметр BVOP формата : 1
Параметр QPel формата : Нет
Параметр GMC формата : Без точки перехода
Параметр матрицы формата : Default (MPEG)
Идентификатор кодека : XVID
Идентификатор кодека/Подсказка : XviD
Продолжительность : 26 м.
Битрейт : 1685 Кбит/сек
Ширина : 720 пикселей
Высота : 400 пикселей
Соотношение сторон : 16:9
Частота кадров : 25,000 кадров/сек
Цветовое пространство : YUV
Субдискретизация насыщенности : 4:2:0
Битовая глубина : 8 бит
Тип развёртки : Прогрессивная
Метод сжатия : С потерями
Бит/(Пиксели*Кадры) : 0.234
Размер потока : 314 Мбайт (89%)
Библиотека кодирования : XviD 64
Аудио
Идентификатор : 1
Формат : AC-3
Формат/Информация : Audio Coding 3
Расширение режима : CM (complete main)
Идентификатор кодека : 2000
Продолжительность : 26 м.
Вид битрейта : Постоянный
Битрейт : 192 Кбит/сек
Каналы : 2 канала
Расположение каналов : Front: L R
Частота : 44,1 КГц
Битовая глубина : 16 бит
Метод сжатия : С потерями
Размер потока : 35,7 Мбайт (10%)
Выравнивание : Разделение по промежуткам
Продолжительность промежутка : 40 мс. (1,00 видеокадр)
Время предзагрузки промежутка : 500 мс.

Список серий:

01. Тайна последнего истинокса
02. Опасные иллюзии
03. Капитаны
04. Равновесие
05. Мозги прочь!
06. Оракул на пенсии
07. Игры без правил
08. Песенный поединок
09. Взрывные детишки
10. Золотые балуны
Скриншоты:          
         
Вне форума [Профиль] [ЛС]
Показать сообщения:    
Ответить на тему

Текущее время: Сегодня 00:51

Часовой пояс: GMT + 3



Вы не можете начинать темы
Вы не можете отвечать на сообщения
Вы не можете редактировать свои сообщения
Вы не можете удалять свои сообщения
Вы не можете голосовать в опросах
Вы не можете прикреплять файлы к сообщениям
Вы не можете скачивать файлы