Сегодня идет свободное скачивание без начисления Download

Маша и Медведь: Дело в шляпе (2014) WEB-DL [H.264/1080p-LQ] (Серия 41)

Ответить на тему
 
Автор
Сообщение

Omen ®

Стаж: 5 лет

Сообщений: 190529

Торрент-статистика

Пост 10-Апр-2014 17:01

[Цитировать]

Маша и Медведь: Дело в шляпе - Режиссер / Телекомпания: Россия
Год выпуска: 2013
Жанр: Компьютерная анимация, Детский
Описание:
Мультсериал про девочку Машу, которая никому не дает покоя, и в первую очередь - своему другу Медведю.
Мультик добрый, веселый, а по качеству намного опережает многие отечественные 3D-мультфильмы, да и некоторые западные 3D мультсериалы.
Сериал показывается в "Спокойной ночи, малыши".
Цель сериала «Маша и Медведь» проста и вместе с тем актуальна - попытаться донести до ребенка вечные истины в понятной и занятной форме, представить мир в его многообразии, выявить позитивные стороны в любой ситуации. Тактично объяснить логику действий в различных проблемных ситуациях. В ненавязчивой форме помочь в борьбе с собственными слабостями. Показать человеческие недостатки и высмеять их, не оскорбляя ничьего достоинства.
Формат - комедийный детский сериал.
Сериал рассчитан в первую очередь на детскую аудиторию (от 3 до 9 лет) и поэтому форма изложения материала будет адаптирована для детского восприятия, но не будет чрезмерно упрощенной. Сериал планируется действительно семейным, интересным для всех возрастов, чтобы взрослые могли посмеяться над приключениями Маши и Медведя, вспомнив собственное детство.
Благодаря тому, что каждая серия является законченной историей с достоверным видеорядом, у зрителей возникает ощущение, что персонажи и их мир действительно существует параллельно с нашим (при этом принцип завершенности каждой серии позволяет комбинировать их в любой последовательности, так чтобы зритель мог понимать и воспринимать сериал, даже пропустив его первые эпизоды).
Режиссер: Олег Кузовков, Владислав Байрамгулов
Персонажи: Алина Кукушкина, Эдуард Назаров, Борис Кутневич

Продолжительность: 00:06:54
Видеокодек: AVC
Качество видео: WEB-DL
Битрейт видео: ~3545 Кбит/сек
Размер кадра: 1920 x 1080
Аудиокодек: AC-3, 2.0
Битрейт аудио: 192 kbit/s

MediaInfo

Формат : Matroska
Версия формата : Version 2
Размер файла : 188 Мбайт
Продолжительность : 6 м. 54 с.
Общий поток : 3812 Кбит/сек
Дата кодирования : UTC 2014-04-09 07:16:31
Программа кодирования : mkvmerge v6.1.0 ('Old Devil') built on Mar 4 2013 09:10:42
Библиотека кодирования : libebml v1.3.0 + libmatroska v1.4.0
Видео
Идентификатор : 1
Формат : AVC
Формат/Информация : Advanced Video Codec
Профиль формата : [url=mailto:High@L4.0]High@L4.0[/url]
Параметр CABAC формата : Да
Параметр ReFrames формата : 2 кадра
Идентификатор кодека : V_MPEG4/ISO/AVC
Продолжительность : 6 м. 54 с.
Битрейт : 3545 Кбит/сек
Ширина : 1920 пикселей
Высота : 1080 пикселей
Соотношение сторон : 16:9
Режим частоты кадров : Переменный
Частота кадров : 25,000 кадров/сек
Цветовое пространство : YUV
Субдискретизация насыщенности : 4:2:0
Битовая глубина : 8 бит
Тип развёртки : Прогрессивная
Бит/(Пиксели*Кадры) : 0.068
Размер потока : 175 Мбайт (93%)
Default : Да
Forced : Нет
Аудио
Идентификатор : 2
Формат : AC-3
Формат/Информация : Audio Coding 3
Расширение режима : CM (complete main)
Идентификатор кодека : A_AC3
Продолжительность : 6 м. 54 с.
Вид битрейта : Постоянный
Битрейт : 192 Кбит/сек
Каналы : 2 канала
Расположение каналов : Front: L R
Частота : 44,1 КГц
Битовая глубина : 16 бит
Метод сжатия : С потерями
Размер потока : 9,48 Мбайт (5%)
Default : Да
Forced : Нет
Скриншоты:
         
Вне форума [Профиль] [ЛС]
Показать сообщения:    
Ответить на тему

Текущее время: Сегодня 00:52

Часовой пояс: GMT + 3



Вы не можете начинать темы
Вы не можете отвечать на сообщения
Вы не можете редактировать свои сообщения
Вы не можете удалять свои сообщения
Вы не можете голосовать в опросах
Вы не можете прикреплять файлы к сообщениям
Вы не можете скачивать файлы