Сегодня идет свободное скачивание без начисления Download

Маша и Медведь: Дело в шляпе (Олег Кузовков, Владислав Байрамгулов, Наталья Мальгина) [2014, Детский, Комедия, Семейный] WEBRip (Серия 41)

Ответить на тему
 
Автор
Сообщение

Omen ®

Стаж: 4 года 10 месяцев

Сообщений: 190643

Торрент-статистика

Пост 06-Апр-2014 12:12

[Цитировать]

Маша и Медведь: Дело в шляпе - Год выпуска: 2014
Жанр: Детский, Комедия, Семейный
Производство: Россия

Описание:
Медведь ведет отчаянную борьбу с прожорливой молью, которая завелась у него дома. Пытаясь спасти свой сундук фокусника, он выставляет его на крыльцо, а Маша находит в нем шапку-невидимку...
Режиссер: Олег Кузовков, Владислав Байрамгулов, Наталья Мальгина
Продюсер: Андрей Добрунов, Дмитрий Ловейко, Олег Кузовков
Персонажи: Алина Кукушкина, Эдуард Назаров, Борис Кутневич
Продолжительность: 00:06:46
Качество видео: WEBRip
Вид субтитров: Отсутствуют
Видеокодек: Xvid
Битрейт видео: ~1753 Kbit/s
Размер кадра: 720x400
Аудиокодек: MP3 2.0
Битрейт аудио: 128 kbit/s
Сэмпл: Скачать

MediaInfo

Общее
Полное имя : D:\Мультфильмы\Masha.i.medved.delo.v.shlyape.2014.WEBRip.avi
Формат : AVI
Формат/Информация : Audio Video Interleave
Размер файла : 91,6 Мбайт
Продолжительность : 6 м. 46 с.
Общий поток : 1891 Кбит/сек
Программа кодирования : VirtualDubMod 1.5.10.3 | www.virtualdub-fr.org || (build 2550/release)
Библиотека кодирования : VirtualDubMod build 2550/release
Видео
Идентификатор : 0
Формат : MPEG-4 Visual
Профиль формата : Advanced Simple@L5
Параметр BVOP формата : 2
Параметр QPel формата : Нет
Параметр GMC формата : Без точки перехода
Параметр матрицы формата : Default (MPEG)
Идентификатор кодека : XVID
Идентификатор кодека/Подсказка : XviD
Продолжительность : 6 м. 46 с.
Битрейт : 1753 Кбит/сек
Ширина : 720 пикселей
Высота : 400 пикселей
Соотношение сторон : 16:9
Частота кадров : 25,000 кадров/сек
Цветовое пространство : YUV
Субдискретизация насыщенности : 4:2:0
Битовая глубина : 8 бит
Тип развёртки : Прогрессивная
Метод сжатия : С потерями
Бит/(Пиксели*Кадры) : 0.243
Размер потока : 84,9 Мбайт (93%)
Библиотека кодирования : XviD 1.2.1 (UTC 2008-12-04)
Аудио
Идентификатор : 1
Формат : MPEG Audio
Версия формата : Version 1
Профиль формата : Layer 3
Идентификатор кодека : 55
Идентификатор кодека/Подсказка : MP3
Продолжительность : 6 м. 46 с.
Вид битрейта : Постоянный
Битрейт : 128 Кбит/сек
Каналы : 2 канала
Частота : 48,0 КГц
Метод сжатия : С потерями
Размер потока : 6,20 Мбайт (7%)
Выравнивание : Соединение по промежуткам
Продолжительность промежутка : 40 мс. (1,00 видеокадр)
Время предзагрузки промежутка : 504 мс.
Библиотека кодирования : LAME3.99r
Настройки программы : -m s -V 4 -q 2 -lowpass 17 -b 128
Скриншоты:          
         
Вне форума [Профиль] [ЛС]
Показать сообщения:    
Ответить на тему

Текущее время: Сегодня 04:36

Часовой пояс: GMT + 3



Вы не можете начинать темы
Вы не можете отвечать на сообщения
Вы не можете редактировать свои сообщения
Вы не можете удалять свои сообщения
Вы не можете голосовать в опросах
Вы не можете прикреплять файлы к сообщениям
Вы не можете скачивать файлы