Сегодня идет свободное скачивание без начисления Download

Мушкетеры / The Musketeers (Сезон 1; Серии 01-10 из 10) (Тоби Хэйнс, Фэррен Блэкберн, Ричард Кларк) [2014, драма, WEB-DLRip] MVO

Ответить на тему
 
Автор
Сообщение

O.S.A. ®

Пол:

Стаж: 5 лет 1 месяц

Сообщений: 4296

Откуда: СССР

Торрент-статистика

Пост 05-Апр-2014 20:07

[Цитировать]

- -◈ Мушкетеры / The Musketeers ◈- Информация о фильме:
✦ Год выхода: 2014
✦ Страна: Великобритания
✦ Производство: BBC America, BBC Drama Productions, BBC Worldwide
✦ Жанр: драма
✦ Продолжительность: 10 х ~00:59:00
✦ Перевод: Профессиональный (многоголосый закадровый)
- NewStudio
✦ Режиссер: Тоби Хэйнс, Фэррен Блэкберн, Ричард Кларк
✦ В ролях: Люк Паскуалино, Том Бёрк, Ховард Чарльз, Сантьяго Кабрера, Александра Доулинг, Питер Капальди, Райан Гейдж, Мэйми МакКой, Хьюго Спир, Шарлотта Хоуп, Джулиан Бастида, Эмили Бичем, Филип Броди, Кевин Кларк, Джей Джей Филд, Тамла Кари, Эбигейл Райс, Джеймс Кэллис, Шон Сернов, Фиона Глэскотт, Джим Хай, Энтон Лессер, Саймон Микок, Стюарт Мур, Анна Скеллерн, Эшли Уолтерс, Власта Сваткова...

Описание фильма:
Мушкетеры собираются на улицах Парижа в семнадцатом веке, где закон и порядок являются больше идеей, чем реальностью. Личные телохранители короля Людовика XIII, Атос, Арамис и Портос решительно стоят за социальную справедливость, за честь, за доблесть, так же за любовь — и за острые ощущения.
-- --Информация о файле:
✦ Качество видео: WEB-DLRip
✦ Формат видео: AVI
✦ Видео кодек: XviD
✦ Аудио кодек: МР3
✦ Видео: 720x400 (1.80:1), 25.000 fps, XviD MPEG-4, ~1382 kbps avg, 0.192 bit/pixel
✦ Аудио RUS: 48.0 kHz, MPEG Audio Layer 3, 2 ch, ~128.00 kbps avg
✦ Аудио ENG: 48.0 kHz, MPEG Audio Layer 3, 2 ch, ~128.00 kbps avg
✦ Субтитры: нет

--

✔ Список серий

01. Друзья и Враги / Friends and Enemies
02. Ловкость рук / Sleight of Hand
03. Товар / Commodities
04. Добрый солдат / The Good Soldier
05. Возвращение домой / The Homecoming
06. Изгнанники / The Exiles
07. Бунтарка / A Rebellious Woman
08. Турнир / The Challenge
09. Рыцарь и королева / Knight Takes Queen
10. Мушкетёров непросто убить / Musketeers Don't Die Easily

✔ Media Info

General
Complete name : D:\Сериалы\The.Musketeers.(s01)\The.Musketeers.S01E01.WEB-DL.NewStudio.TV.avi
Format : AVI
Format/Info : Audio Video Interleave
File size : 700 MiB
Duration : 59mn 14s
Overall bit rate : 1 652 Kbps
Writing application : VirtualDubMod 1.5.10.2 (build 2540/release)
Writing library : VirtualDubMod build 2540/release
Video
ID : 0
Format : MPEG-4 Visual
Format profile : Advanced Simple@L5
Format settings, BVOP : 2
Format settings, QPel : No
Format settings, GMC : No warppoints
Format settings, Matrix : Default (MPEG)
Codec ID : XVID
Codec ID/Hint : XviD
Duration : 59mn 14s
Bit rate : 1 382 Kbps
Width : 720 pixels
Height : 400 pixels
Display aspect ratio : 16:9
Frame rate : 25.000 fps
Color space : YUV
Chroma subsampling : 4:2:0
Bit depth : 8 bits
Scan type : Progressive
Compression mode : Lossy
Bits/(Pixel*Frame) : 0.192
Stream size : 585 MiB (84%)
Writing library : XviD 64
Audio #1
ID : 1
Format : MPEG Audio
Format version : Version 1
Format profile : Layer 3
Mode : Joint stereo
Mode extension : MS Stereo
Codec ID : 55
Codec ID/Hint : MP3
Duration : 59mn 14s
Bit rate mode : Constant
Bit rate : 128 Kbps
Channel(s) : 2 channels
Sampling rate : 48.0 KHz
Compression mode : Lossy
Stream size : 54.2 MiB (8%)
Alignment : Aligned on interleaves
Interleave, duration : 40 ms (1.00 video frame)
Interleave, preload duration : 504 ms
Audio #2
ID : 2
Format : MPEG Audio
Format version : Version 1
Format profile : Layer 3
Mode : Joint stereo
Mode extension : MS Stereo
Codec ID : 55
Codec ID/Hint : MP3
Duration : 59mn 14s
Bit rate mode : Constant
Bit rate : 128 Kbps
Channel(s) : 2 channels
Sampling rate : 48.0 KHz
Compression mode : Lossy
Stream size : 54.2 MiB (8%)
Alignment : Aligned on interleaves
Interleave, duration : 40 ms (1.00 video frame)
Interleave, preload duration : 504 ms
Writing library : LAME3.99r
Encoding settings : -m j -V 4 -q 2 -lowpass 17 -b 128

✔ Скриншоты

         
-- --

_________________

===============================
IGNOSCITO SAEPE ALTERI, NUNQUAM TIBI
Вне форума [Профиль] [ЛС]
Показать сообщения:    
Ответить на тему

Текущее время: Сегодня 14:25

Часовой пояс: GMT + 3



Вы не можете начинать темы
Вы не можете отвечать на сообщения
Вы не можете редактировать свои сообщения
Вы не можете удалять свои сообщения
Вы не можете голосовать в опросах
Вы не можете прикреплять файлы к сообщениям
Вы не можете скачивать файлы