Сегодня идет свободное скачивание без начисления Download

Губка Боб Квадратные Штаны / SpongeBob SquarePants / Сезон: 9 / Серия: 11 (Стивен Хилленбург / Stephen Hillenburg) [2012, Мультипликация, SATRip] Dub

Ответить на тему
 
Автор
Сообщение

Omen ®

Стаж: 5 лет

Сообщений: 190530

Торрент-статистика

Пост 02-Апр-2014 11:01

[Цитировать]

Губка Боб Квадратные Штаны / SpongeBob SquarePants / 9 сезон 11 серия
Страна: США
Жанр: Мультипликация
Продолжительность: 0:22:15
Год выпуска: 2012
Перевод: Профессиональный (дублированный)
Русские субтитры: нет
Режиссёр: Стивен Хилленбург / Stephen Hillenburg
Описание: Кто проживает на дне океана? Спанч Боб Сквэр Пэнтс! Или просто Губка Боб квадратные штаны. Этот мультсериал был снят в студии Никелодеон и появился на экранах в 1999 году и сразу завоевал свое место под солнцем. На данный момент я думаю нет такого человека который бы не знал кто такой Губка Боб. На глубине океана существует город под названием Бикини Боттом там и происходит все действие. Умом губку само собой аниматоры и сценаристы наделять и не думали, живет себе так и живет.
Дополнительная информация: Записано сегодня с телеканала Nickelodeon.
Качество: SATRip
Формат: AVI
Видео: XVID, 720x400, 25 fps, 1800 kbps
Аудио: MP3, 48 kHz, 2 ch, 192 kbps
Субтитры: отсутствуют
Ссылка на предыдущие и альтернативные раздачи: Все раздачи мультсериала

Список серий

11. SpongeBob You're Fired (Губка Боб, ты уволен!)
В этой серии Мистер Крабс хочет сэкономить деньги, поэтому он увольняет Губку Боба.

Подробные технические данные

Format : AVIFormat/Info : Audio Video InterleaveFile size : 318 MiBDuration : 22mn 15sOverall bit rate : 1 998 KbpsWriting library : VirtualDub build 32507/release
VideoID : 0Format : MPEG-4 VisualFormat profile : Advanced Simple@L5Format settings, BVOP : 2Format settings, QPel : NoFormat settings, GMC : No warppointsFormat settings, Matrix : Default (H.263)Muxing mode : Packed bitstreamCodec ID : XVIDCodec ID/Hint : XviDDuration : 22mn 15sBit rate : 1 797 KbpsWidth : 720 pixelsHeight : 400 pixelsDisplay aspect ratio : 16:9Frame rate : 25.000 fpsColor space : YUVChroma subsampling : 4:2:0Bit depth : 8 bitsScan type : ProgressiveCompression mode : LossyBits/(Pixel*Frame) : 0.250Stream size : 286 MiB (90%)Writing library : XviD 64
AudioID : 1Format : MPEG AudioFormat version : Version 1Format profile : Layer 3Mode : Joint stereoCodec ID : 55Codec ID/Hint : MP3Duration : 22mn 15sBit rate mode : ConstantBit rate : 192 KbpsChannel(s) : 2 channelsSampling rate : 48.0 KHzCompression mode : LossyStream size : 30.6 MiB (10%)Alignment : Split accross interleavesInterleave, duration : 40 ms (1.00 video frame)Interleave, preload duration : 500 ms

Скриншоты

Вне форума [Профиль] [ЛС]
Показать сообщения:    
Ответить на тему

Текущее время: Сегодня 03:10

Часовой пояс: GMT + 3



Вы не можете начинать темы
Вы не можете отвечать на сообщения
Вы не можете редактировать свои сообщения
Вы не можете удалять свои сообщения
Вы не можете голосовать в опросах
Вы не можете прикреплять файлы к сообщениям
Вы не можете скачивать файлы