Today is a free download without charge Download

(Opera) Wagner - The Great Operas from the Bayreuth Festival (Wolfgang Sawallisch, Karl Bohm, Silvio Varviso, James Levine) - 2008, FLAC (image+.cue) lossless

Reply to topic
 
Author
Message

Koralina ®

Longevity: 9 years 5 months

Posts: 994

Location: Lithuania

Торрент-статистика

Post 10-Dec-2011 15:50

[Quote]

Wagner - The Great Operas from the Bayreuth Festival
Жанр: Opera
Страна-производитель диска: EU
Год издания диска: 2008
Издатель (лейбл): Decca Music Group Ltd.
Номер по каталогу: 478 0279
Дата записи: 1961-1985
Аудиокодек: FLAC
Тип рипа: image+.cue
Битрейт аудио: lossless
Продолжительность: 2056.12 min
Источник: собственный рип
Наличие сканов в содержимом раздачи: да

"Der Fliegende Holländer" (recorded live at the Bayreuth Festival, August 1961):

CD1:

Треклист:

01. Ouverture
02. Akt 1 - (Matrosen) - Hojoje! Hojoje! Hallojo! - Festspielchor
03. Akt 1 - (Daland, Steuermann) - Kein Zweifel! Sieben Meilen fort
04. Akt 1 - (Steuermann) - Mit Gewitter und Sturm aus fernem Meer
05. Akt 1 - (Hollander) - Die Frist ist um
06. Akt 1 - (Hollander) - Dich frage ich, gepries'ner Engel Gottes
07. Akt 1 - (Hollander) - Nur eine Hoffnung soll mir bleiben
08. Akt 1 - (Daland, Steuermann, Hollander) - He! Holla! Steuermann!
09. Akt 1 - (Hollander, Daland) - Durch Sturm und bosen Wind vershlagen
10. Akt 1 - (Daland, Hollander) - Wie? Hor' ich recht? Meine Tochter sein Weib?
11. Akt 1 - (Hollander, Daland) - Wenn aus der Qualen Schreckgewalten
12. Akt 1 - (Steuermann, Matrosen, Daland, Hollander) - Sudwind! Sudwind!
13. Akt 1 - (Matrosen) - Mit Gewitter und Sturm aus fernem Meer
14. Akt 2 - (Madchen, Mary) - Summ und brumm, du gutes Radchen
15. Akt 2 - (Mary, Senta, Madchen) - Da seht ihr's!
16. Akt 2 - (Senta) - Johohoe! Traft ihr das Schiff im Merre an
Total 62.52

Лог создания рипа:

CD2:

Треклист:

01. Akt 2 - (Senta, Mary, Erik) - Ach, wo weilt sie
02. Akt 2 - (Erik, Mary) - Vom hohen Felsen sah ein Schiff ich nahn
03. Akt 2 - (Erik, Senta) - Bleib, Senta! Bleib nur einen Augenblick!
04. Akt 2 - (Erik, Senta) - Mein Herz, voll Treue bis zum Sterben
05. Akt 2 - (Erik, Senta) - Auf hohem Felsen lag ich traumend
06. Akt 2 - (Daland, Senta) - Mein Kind, du siehst mich
07. Akt 2 - (Daland) - Mogst du, mein Kind, den fremden Mann
08. Akt 2 - (Hollander, Senta) - Wie aus der Ferne
09. Akt 2 - (Hollander, Senta) - Wirst du des Vaters Wahl
10. Akt 2 - (Daland, Senta , Hollander) - Verzeiht! Mein Volk
11. Akt 3 - (Norwegische Matrosen) - Steuermann, lass die Wacht!
12. Akt 3 - (Matrosen, Steuermann) - Mein! Seht doch an!
13. Akt 3 - (Hollandische und Norwegische Matrosen) - Johohoe! Johohoe! Hoe! Hoe!
14. Akt 3 - (Erik, Senta) - Was musst' ich horen
15. Akt 3 - (Erik) - Willst jenes Tags du nicht mehr dich entsinnen
16. Akt 3 - (Hollander, Erik, Senta) - Verloren! Ach, verloren!
17. Akt 3 - (Hollander, Erik, Senta, Mary) - Erfahre das Geschick
Total 61.36

Лог создания рипа:

Exact Audio Copy V0.99 prebeta 5 from 4. May 2009
Отчёт EAC об извлечении, выполненном 30. ноября 2011, 23:52
W.Sawallisch 1961 / Richard Wagner Der Fliegende Hollander CD2
Дисковод: _NEC DVD_RW ND-3570A Adapter: 3 ID: 1
Режим чтения : Достоверность
Использование точного потока : Да
Отключение кэша аудио : Да
Использование указателей C2 : Нет
Коррекция смещения при чтении : 48
Способность читать области Lead-in и Lead-out : Нет
Заполнение пропущенных сэмплов тишиной : Да
Удаление блоков с тишиной в начале и конце : Нет
При вычислениях CRC использовались нулевые сэмплы : Да
Интерфейс : Установленный внешний ASPI-интерфейс
Выходной формат : Пользовательский кодировщик
Выбранный битрейт : 128 kBit/s
Качество : Высокий
Добавление ID3-тэга : Нет
Утилита сжатия : C:\Program Files\Exact Audio Copy\Flac\flac.exe
Дополнительные параметры : -8 -V -T "ARTIST=%a" -T "TITLE=%t" -T "ALBUM=%g" -T "DATE=%y" -T "TRACKNUMBER=%n" -T "GENRE=%m" -T "COMMENT=EAC FLAC -8" %s
TOC извлечённого CD
Трек | Старт | Длительность | Начальный сектор | Конечный сектор
---------------------------------------------------------------------
1 | 0:00.33 | 1:45.25 | 33 | 7932
2 | 1:45.58 | 1:34.00 | 7933 | 14982
3 | 3:19.58 | 0:46.50 | 14983 | 18482
4 | 4:06.33 | 6:51.50 | 18483 | 49357
5 | 10:58.08 | 3:51.12 | 49358 | 66694
6 | 14:49.20 | 1:45.13 | 66695 | 74582
7 | 16:34.33 | 5:02.00 | 74583 | 97232
8 | 21:36.33 | 6:41.37 | 97233 | 127344
9 | 28:17.70 | 7:17.38 | 127345 | 160157
10 | 35:35.33 | 1:39.25 | 160158 | 167607
11 | 37:14.58 | 2:25.50 | 167608 | 178532
12 | 39:40.33 | 7:00.12 | 178533 | 210044
13 | 46:40.45 | 3:27.13 | 210045 | 225582
14 | 50:07.58 | 2:18.25 | 225583 | 235957
15 | 52:26.08 | 2:30.62 | 235958 | 247269
16 | 54:56.70 | 1:43.25 | 247270 | 255019
17 | 56:40.20 | 4:56.13 | 255020 | 277232
Характеристики диапазона извлечения и сообщения об ошибках
Выбранный диапазон
Имя файла F:\Exact Audio Copy\Wagner - The Great Operas from the Bayreuth Festival\Der Fliegende Hollander\CD2\W.Sawallisch 1961 - Richard Wagner Der Fliegende Hollander CD2.wav
Пиковый уровень 97.1 %
Качество диапазона 100.0 %
CRC теста DDE17C8B
CRC копии DDE17C8B
Копирование... OK
Ошибок не произошло
AccurateRip: сводка
Трек 1 точное извлечение (доверие 36) [95E478B3]
Трек 2 точное извлечение (доверие 36) [DF8AD638]
Трек 3 точное извлечение (доверие 36) [31689A03]
Трек 4 точное извлечение (доверие 36) [1A0270B3]
Трек 5 точное извлечение (доверие 36) [B6487945]
Трек 6 точное извлечение (доверие 36) [E96341C2]
Трек 7 точное извлечение (доверие 36) [5EB5DCF8]
Трек 8 точное извлечение (доверие 36) [C8DFA4A0]
Трек 9 точное извлечение (доверие 36) [156B0B3E]
Трек 10 точное извлечение (доверие 36) [7FE872A0]
Трек 11 точное извлечение (доверие 36) [A33F8462]
Трек 12 точное извлечение (доверие 36) [6F078EF3]
Трек 13 точное извлечение (доверие 36) [9F9E3CB2]
Трек 14 точное извлечение (доверие 36) [8483EB42]
Трек 15 точное извлечение (доверие 36) [EEA4B871]
Трек 16 точное извлечение (доверие 36) [BBF89A42]
Трек 17 точное извлечение (доверие 35) [102199D3]
Все треки извлечены точно
Конец отчёта

Исполнители:

Josef Greindl (Daland)
Anja Silja (Senta)
Fritz Uhl (Erik)
Res Fischer (Mary)
Georg Paskuda (Der Steuermann Dalands)
Franz Crass (Der Holl�nder)
Chor und Orchester der Bayreuther Festspiele
Chorus master Wilhelm Pitz
Wolfgang Sawallisch

"Tannhäuser" (recorded live at the 1962 Bayreuth Festival):

CD1:

Треклист:

01. Ouverture
02. Geliebter, sag, wo weilt dein Sinn
03. Dir tone Lob! Die Wunder sei'n gepriesen
04. Geliebter, komm! Sieh dort die Grotte
05. Stets soll nur dir mein Lied ertonen!
06. Zieh hin, Wahnsinniger
07. Frau Holda kam aus dem Berg hervor
08. Zu dir wall ich, mein Jesus Christ
09. Wer ist der dort in brunstigem Gebete
10. Als du in kuhnem Sange uns bestrittest
Total 54.30

Лог создания рипа:

Exact Audio Copy V0.99 prebeta 5 from 4. May 2009
Отчёт EAC об извлечении, выполненном 1. декабря 2011, 0:33
Sawallisch 1962 / Wagner Tannhauser CD1
Дисковод: _NEC DVD_RW ND-3570A Adapter: 3 ID: 1
Режим чтения : Достоверность
Использование точного потока : Да
Отключение кэша аудио : Да
Использование указателей C2 : Нет
Коррекция смещения при чтении : 48
Способность читать области Lead-in и Lead-out : Нет
Заполнение пропущенных сэмплов тишиной : Да
Удаление блоков с тишиной в начале и конце : Нет
При вычислениях CRC использовались нулевые сэмплы : Да
Интерфейс : Установленный внешний ASPI-интерфейс
Выходной формат : Пользовательский кодировщик
Выбранный битрейт : 128 kBit/s
Качество : Высокий
Добавление ID3-тэга : Нет
Утилита сжатия : C:\Program Files\Exact Audio Copy\Flac\flac.exe
Дополнительные параметры : -8 -V -T "ARTIST=%a" -T "TITLE=%t" -T "ALBUM=%g" -T "DATE=%y" -T "TRACKNUMBER=%n" -T "GENRE=%m" -T "COMMENT=EAC FLAC -8" %s
TOC извлечённого CD
Трек | Старт | Длительность | Начальный сектор | Конечный сектор
---------------------------------------------------------------------
1 | 0:00.33 | 19:29.55 | 33 | 87762
2 | 19:30.13 | 3:33.00 | 87763 | 103737
3 | 23:03.13 | 5:21.70 | 103738 | 127882
4 | 28:25.08 | 2:23.57 | 127883 | 138664
5 | 30:48.65 | 1:35.68 | 138665 | 145857
6 | 32:24.58 | 3:22.62 | 145858 | 161069
7 | 35:47.45 | 1:43.63 | 161070 | 168857
8 | 37:31.33 | 5:57.45 | 168858 | 195677
9 | 43:29.03 | 5:00.62 | 195678 | 218239
10 | 48:29.65 | 6:00.43 | 218240 | 245282
Характеристики диапазона извлечения и сообщения об ошибках
Выбранный диапазон
Имя файла F:\Exact Audio Copy\Wagner - The Great Operas from the Bayreuth Festival\Tannhauser - Sawallisch (1962)\CD1\Sawallisch 1962 - Wagner Tannhauser CD1.wav
Пиковый уровень 95.2 %
Качество диапазона 99.9 %
CRC теста 2A43B154
CRC копии 2A43B154
Копирование... OK
Ошибок не произошло
AccurateRip: сводка
Трек 1 точное извлечение (доверие 38) [C2C026F7]
Трек 2 точное извлечение (доверие 38) [3E39B227]
Трек 3 точное извлечение (доверие 38) [0C1A9A97]
Трек 4 точное извлечение (доверие 38) [8A7CD12F]
Трек 5 точное извлечение (доверие 37) [E04AEF74]
Трек 6 точное извлечение (доверие 38) [59CBD974]
Трек 7 точное извлечение (доверие 38) [0BCF2854]
Трек 8 точное извлечение (доверие 38) [83DB832D]
Трек 9 точное извлечение (доверие 38) [37C94632]
Трек 10 точное извлечение (доверие 38) [EF05B52C]
Все треки извлечены точно
Конец отчёта

CD2:

Треклист:

01. Dich, teure Halle, gruss ich wieder
02. Dort ist sie; nahe dich ihr ungestort!
03. Den Gott der Liebe sollst du preisen
04. Dich treff ich hier, in dieser Halle
05. Freudig begrussen wir die edle Halle
06. Gar viel und schon ward hier in dieser Halle
07. Blick ich umher in diesem edlen Kreise
08. Auch ich darf mich so glucklich nennen
09. O Walther, der du also sangest
10. Dir, Gottin der Liebe, soll mein Lied ertonen!
11. Was hor ich?
12. Der Unglucksel'ge, den gefangen
13. Weh! Weh, mir Unglucksel'gem!
14. Ein furchtbares Verbrechen ward begangen
15. Versammelt sind aus meinen Landen
Total 64.41

Лог создания рипа:

Exact Audio Copy V0.99 prebeta 5 from 4. May 2009
Отчёт EAC об извлечении, выполненном 1. декабря 2011, 1:58
Sawallisch 1962 / Wagner Tannhauser CD2
Дисковод: _NEC DVD_RW ND-3570A Adapter: 3 ID: 1
Режим чтения : Достоверность
Использование точного потока : Да
Отключение кэша аудио : Да
Использование указателей C2 : Нет
Коррекция смещения при чтении : 48
Способность читать области Lead-in и Lead-out : Нет
Заполнение пропущенных сэмплов тишиной : Да
Удаление блоков с тишиной в начале и конце : Нет
При вычислениях CRC использовались нулевые сэмплы : Да
Интерфейс : Установленный внешний ASPI-интерфейс
Выходной формат : Пользовательский кодировщик
Выбранный битрейт : 128 kBit/s
Качество : Высокий
Добавление ID3-тэга : Нет
Утилита сжатия : C:\Program Files\Exact Audio Copy\Flac\flac.exe
Дополнительные параметры : -8 -V -T "ARTIST=%a" -T "TITLE=%t" -T "ALBUM=%g" -T "DATE=%y" -T "TRACKNUMBER=%n" -T "GENRE=%m" -T "COMMENT=EAC FLAC -8" %s
TOC извлечённого CD
Трек | Старт | Длительность | Начальный сектор | Конечный сектор
---------------------------------------------------------------------
1 | 0:00.33 | 4:43.57 | 33 | 21314
2 | 4:44.15 | 6:23.68 | 21315 | 50107
3 | 11:08.08 | 2:19.22 | 50108 | 60554
4 | 13:27.30 | 3:41.15 | 60555 | 77144
5 | 17:08.45 | 7:24.63 | 77145 | 110507
6 | 24:33.33 | 6:17.00 | 110508 | 138782
7 | 30:50.33 | 4:43.00 | 138783 | 160007
8 | 35:33.33 | 3:24.45 | 160008 | 175352
9 | 38:58.03 | 4:25.55 | 175353 | 195282
10 | 43:23.58 | 1:38.50 | 195283 | 202682
11 | 45:02.33 | 2:16.12 | 202683 | 212894
12 | 47:18.45 | 3:15.63 | 212895 | 227582
13 | 50:34.33 | 6:19.00 | 227583 | 256007
14 | 56:53.33 | 2:10.50 | 256008 | 265807
15 | 59:04.08 | 5:37.25 | 265808 | 291107
Характеристики диапазона извлечения и сообщения об ошибках
Выбранный диапазон
Имя файла F:\Exact Audio Copy\Wagner - The Great Operas from the Bayreuth Festival\2.Tannhauser - Sawallisch (1962)\CD2\Sawallisch 1962 - Wagner Tannhauser CD2.wav
Пиковый уровень 97.6 %
Качество диапазона 100.0 %
CRC теста 26FBA4A1
CRC копии 26FBA4A1
Копирование... OK
Ошибок не произошло
AccurateRip: сводка
Трек 1 точное извлечение (доверие 38) [26A78F52]
Трек 2 точное извлечение (доверие 38) [C0412719]
Трек 3 точное извлечение (доверие 38) [E2A2036B]
Трек 4 точное извлечение (доверие 38) [7C285019]
Трек 5 точное извлечение (доверие 38) [57F0C4C9]
Трек 6 точное извлечение (доверие 38) [6B186302]
Трек 7 точное извлечение (доверие 37) [AEA38FB4]
Трек 8 точное извлечение (доверие 37) [6F531A21]
Трек 9 точное извлечение (доверие 38) [71B18361]
Трек 10 точное извлечение (доверие 38) [7AF3BF7D]
Трек 11 точное извлечение (доверие 37) [57EDD826]
Трек 12 точное извлечение (доверие 37) [68FD547F]
Трек 13 точное извлечение (доверие 37) [E9C29916]
Трек 14 точное извлечение (доверие 37) [D80C0520]
Трек 15 точное извлечение (доверие 37) [8E39BBAA]
Все треки извлечены точно
Конец отчёта

CD3:

Треклист:

01. Prelude
02. Wohl wusst' ich hier sie im Gebet zu finden
03. Begluckt darf nun dich
04. Allmacht'ge Jungfrau, hur mein...
05. Wie Todesahnung Dammrung deckt die Lande
06. O du, mein holder Abendstern
07. Ich horte Harfenschlag
08. Inbrunst im Herzen
09. Nach Rom gelang't ich so
10. Da sank ich..Halt ein!
11. Wilkommen, ungetreuer Mann!
12. Heil! Heil! Der Gnade Wunder Heil!
Total 51.11

Лог создания рипа:

Exact Audio Copy V0.99 prebeta 5 from 4. May 2009
Отчёт EAC об извлечении, выполненном 1. декабря 2011, 2:29
Sawallisch 1962 / Wagner Tannhauser CD3
Дисковод: _NEC DVD_RW ND-3570A Adapter: 3 ID: 1
Режим чтения : Достоверность
Использование точного потока : Да
Отключение кэша аудио : Да
Использование указателей C2 : Нет
Коррекция смещения при чтении : 48
Способность читать области Lead-in и Lead-out : Нет
Заполнение пропущенных сэмплов тишиной : Да
Удаление блоков с тишиной в начале и конце : Нет
При вычислениях CRC использовались нулевые сэмплы : Да
Интерфейс : Установленный внешний ASPI-интерфейс
Выходной формат : Пользовательский кодировщик
Выбранный битрейт : 128 kBit/s
Качество : Высокий
Добавление ID3-тэга : Нет
Утилита сжатия : C:\Program Files\Exact Audio Copy\Flac\flac.exe
Дополнительные параметры : -8 -V -T "ARTIST=%a" -T "TITLE=%t" -T "ALBUM=%g" -T "DATE=%y" -T "TRACKNUMBER=%n" -T "GENRE=%m" -T "COMMENT=EAC FLAC -8" %s
TOC извлечённого CD
Трек | Старт | Длительность | Начальный сектор | Конечный сектор
---------------------------------------------------------------------
1 | 0:00.33 | 7:59.50 | 33 | 36007
2 | 8:00.08 | 3:01.25 | 36008 | 49607
3 | 11:01.33 | 4:20.62 | 49608 | 69169
4 | 15:22.20 | 7:51.58 | 69170 | 104552
5 | 23:14.03 | 2:25.05 | 104553 | 115432
6 | 25:39.08 | 2:58.50 | 115433 | 128832
7 | 28:37.58 | 4:30.50 | 128833 | 149132
8 | 33:08.33 | 3:20.00 | 149133 | 164132
9 | 36:28.33 | 4:21.12 | 164133 | 183719
10 | 40:49.45 | 3:45.38 | 183720 | 200632
11 | 44:35.08 | 4:05.50 | 200633 | 219057
12 | 48:40.58 | 2:30.50 | 219058 | 230357
Характеристики диапазона извлечения и сообщения об ошибках
Выбранный диапазон
Имя файла F:\Exact Audio Copy\Wagner - The Great Operas from the Bayreuth Festival\2. Tannhauser - Sawallisch (1962)\CD3\Sawallisch 1962 - Wagner Tannhauser CD3.wav
Пиковый уровень 91.1 %
Качество диапазона 100.0 %
CRC теста 56E71DCD
CRC копии 56E71DCD
Копирование... OK
Ошибок не произошло
AccurateRip: сводка
Трек 1 точное извлечение (доверие 35) [051F4324]
Трек 2 точное извлечение (доверие 36) [11DDE336]
Трек 3 точное извлечение (доверие 36) [9EE2A2C0]
Трек 4 точное извлечение (доверие 36) [40949EC9]
Трек 5 точное извлечение (доверие 36) [DEE76BBB]
Трек 6 точное извлечение (доверие 36) [54243E20]
Трек 7 точное извлечение (доверие 35) [4911AAF9]
Трек 8 точное извлечение (доверие 36) [81287432]
Трек 9 точное извлечение (доверие 36) [F5A8AFDD]
Трек 10 точное извлечение (доверие 35) [96EA8A84]
Трек 11 точное извлечение (доверие 35) [0BB66C1E]
Трек 12 точное извлечение (доверие 35) [E1C60ADB]
Все треки извлечены точно
Конец отчёта

Исполнители:

Josef Greindl (Hermann)
Wolfgang Windgassen (Tannh�user)
Eberhard Waechter (Wolfram von Eschenbach)
Franz Crass (Biterolf)
Gerhard Stolze (Walter von der Vogelweide)
Georg Paskuda (Heinrich der Schreiber)
Gerd Nienstedt (Reinmar von Zweter)
Anja Silja (Elisabeth)
Grace Bumbry (Venus)
Else-Margrete Gardelli (Ein junger Hirt)
Chor und Orchester der Bayreuther Festspiele
Chorus master Wilhelm Pitz
Wolfgang Sawallisch

"Lohengrin" (recorded live at the Bayreuth Festival, July 1962):

CD1:

Треклист:

01. Prelude
02 .Hort! Grafen, Edle, Freie von Brabant
03. Dank, Konig, dir, dass du zu richten kamst!
04. Seht hin! Sie naht, die hart Beklagte
05. Einsam in truben Tagen
06. Mich irret nicht ihr traumerischer Mut
07. Wer hier im Gotteskampf zu streiten kam
08. Nun sei bedankt, mein lieber Schwan!
09. Zum Kampf fur eine Magd zu stehn
10. Nun hurt! Euch Volk und Edlen mach ' ich kund
11. Nun huret mich und achtet wohl
12. Durch Gottes Sieg ist jetzt dein leben mein
Total 61.29

Лог создания рипа:

Exact Audio Copy V0.99 prebeta 5 from 4. May 2009
Отчёт EAC об извлечении, выполненном 1. декабря 2011, 3:09
Sawallisch 1962 / Wagner Lohengrin CD1
Дисковод: _NEC DVD_RW ND-3570A Adapter: 3 ID: 1
Режим чтения : Достоверность
Использование точного потока : Да
Отключение кэша аудио : Да
Использование указателей C2 : Нет
Коррекция смещения при чтении : 48
Способность читать области Lead-in и Lead-out : Нет
Заполнение пропущенных сэмплов тишиной : Да
Удаление блоков с тишиной в начале и конце : Нет
При вычислениях CRC использовались нулевые сэмплы : Да
Интерфейс : Установленный внешний ASPI-интерфейс
Выходной формат : Пользовательский кодировщик
Выбранный битрейт : 128 kBit/s
Качество : Высокий
Добавление ID3-тэга : Нет
Утилита сжатия : C:\Program Files\Exact Audio Copy\Flac\flac.exe
Дополнительные параметры : -8 -V -T "ARTIST=%a" -T "TITLE=%t" -T "ALBUM=%g" -T "DATE=%y" -T "TRACKNUMBER=%n" -T "GENRE=%m" -T "COMMENT=EAC FLAC -8" %s
TOC извлечённого CD
Трек | Старт | Длительность | Начальный сектор | Конечный сектор
---------------------------------------------------------------------
1 | 0:00.33 | 8:14.00 | 33 | 37082
2 | 8:14.33 | 4:42.00 | 37083 | 58232
3 | 12:56.33 | 6:24.00 | 58233 | 87032
4 | 19:20.33 | 3:42.50 | 87033 | 103732
5 | 23:03.08 | 3:50.62 | 103733 | 121044
6 | 26:53.70 | 4:56.25 | 121045 | 143269
7 | 31:50.20 | 5:26.00 | 143270 | 167719
8 | 37:16.20 | 3:39.38 | 167720 | 184182
9 | 40:55.58 | 6:33.25 | 184183 | 213682
10 | 47:29.08 | 2:20.50 | 213683 | 224232
11 | 49:49.58 | 7:06.62 | 224233 | 256244
12 | 56:56.45 | 4:32.63 | 256245 | 276707
Характеристики диапазона извлечения и сообщения об ошибках
Выбранный диапазон
Имя файла F:\Exact Audio Copy\Wagner - The Great Operas from the Bayreuth Festival\3. Lohengrin - Sawallisch (1962)\CD1\Sawallisch 1962 - Wagner Lohengrin CD1.wav
Пиковый уровень 88.5 %
Качество диапазона 100.0 %
CRC теста 1383724C
CRC копии 1383724C
Копирование... OK
Ошибок не произошло
AccurateRip: сводка
Трек 1 точное извлечение (доверие 32) [C0DD3DFF]
Трек 2 точное извлечение (доверие 32) [575FB979]
Трек 3 точное извлечение (доверие 32) [5FDC2A17]
Трек 4 точное извлечение (доверие 32) [74FD26F8]
Трек 5 точное извлечение (доверие 32) [D93253ED]
Трек 6 точное извлечение (доверие 32) [98F4502F]
Трек 7 точное извлечение (доверие 32) [C52EBE2A]
Трек 8 точное извлечение (доверие 32) [FD62E623]
Трек 9 точное извлечение (доверие 31) [EAA59ECC]
Трек 10 точное извлечение (доверие 32) [8D2A3334]
Трек 11 точное извлечение (доверие 32) [15D049D8]
Трек 12 точное извлечение (доверие 32) [9888EB4F]
Все треки извлечены точно
Конец отчёта

CD2:

Треклист:

01. Introduction
02. Erhebe dich, Genossin meiner Schmach
03. Du wilde Seherin
04. Euch Luften, die mein Klagen
05. Elsa! - Wer ruft?
06. Entweihte Gotter! Helfer jetzt meiner Rache!
07. Wie kann ich solche Huld dir lohnen
08. In Fruhn versammelt uns der Ruf
09. Des Konigs Wort und Will' tu ich euch kund
10. Gesegnet soll sie schreiten
11. Zuruck, Elsa! Nicht langer will ich dulden
12. O Konig! Trugbetorte Fursten! Haltet ein!
13. Welch ein Geheimnis muss der Held bewahren ї
14. Mein Held, entgegne kuhn dem Ungetreuen
Total 75.20

Лог создания рипа:

Exact Audio Copy V0.99 prebeta 5 from 4. May 2009
Отчёт EAC об извлечении, выполненном 1. декабря 2011, 7:54
Sawallisch 1962 / Wagner Lohengrin CD2
Дисковод: _NEC DVD_RW ND-3570A Adapter: 3 ID: 1
Режим чтения : Достоверность
Использование точного потока : Да
Отключение кэша аудио : Да
Использование указателей C2 : Нет
Коррекция смещения при чтении : 48
Способность читать области Lead-in и Lead-out : Нет
Заполнение пропущенных сэмплов тишиной : Да
Удаление блоков с тишиной в начале и конце : Нет
При вычислениях CRC использовались нулевые сэмплы : Да
Интерфейс : Установленный внешний ASPI-интерфейс
Выходной формат : Пользовательский кодировщик
Выбранный битрейт : 128 kBit/s
Качество : Высокий
Добавление ID3-тэга : Нет
Утилита сжатия : C:\Program Files\Exact Audio Copy\Flac\flac.exe
Дополнительные параметры : -8 -V -T "ARTIST=%a" -T "TITLE=%t" -T "ALBUM=%g" -T "DATE=%y" -T "TRACKNUMBER=%n" -T "GENRE=%m" -T "COMMENT=EAC FLAC -8" %s
TOC извлечённого CD
Трек | Старт | Длительность | Начальный сектор | Конечный сектор
---------------------------------------------------------------------
1 | 0:00.33 | 3:43.50 | 33 | 16807
2 | 3:44.08 | 7:10.50 | 16808 | 49107
3 | 10:54.58 | 6:21.50 | 49108 | 77732
4 | 17:16.33 | 2:57.62 | 77733 | 91069
5 | 20:14.20 | 3:56.63 | 91070 | 108832
6 | 24:11.08 | 3:59.12 | 108833 | 126769
7 | 28:10.20 | 6:42.63 | 126770 | 156982
8 | 34:53.08 | 3:56.62 | 156983 | 174744
9 | 38:49.70 | 8:04.38 | 174745 | 211082
10 | 46:54.33 | 4:53.62 | 211083 | 233119
11 | 51:48.20 | 8:09.00 | 233120 | 269794
12 | 59:57.20 | 5:12.63 | 269795 | 293257
13 | 65:10.08 | 3:47.25 | 293258 | 310307
14 | 68:57.33 | 6:23.00 | 310308 | 339032
Характеристики диапазона извлечения и сообщения об ошибках
Выбранный диапазон
Имя файла F:\Exact Audio Copy\Wagner - The Great Operas from the Bayreuth Festival\3. Lohengrin - Sawallisch (1962)\CD2\Sawallisch 1962 - Wagner Lohengrin CD2.wav
Пиковый уровень 100.0 %
Качество диапазона 100.0 %
CRC теста 61A56127
CRC копии 61A56127
Копирование... OK
Ошибок не произошло
AccurateRip: сводка
Трек 1 точное извлечение (доверие 32) [D78981EC]
Трек 2 точное извлечение (доверие 32) [4EEEF545]
Трек 3 точное извлечение (доверие 32) [0EA341ED]
Трек 4 точное извлечение (доверие 31) [08C22DD8]
Трек 5 точное извлечение (доверие 32) [809A3AE0]
Трек 6 точное извлечение (доверие 32) [62B3401A]
Трек 7 точное извлечение (доверие 31) [2EA78F45]
Трек 8 точное извлечение (доверие 32) [B0494D32]
Трек 9 точное извлечение (доверие 32) [48EA5B68]
Трек 10 точное извлечение (доверие 31) [27EB1238]
Трек 11 точное извлечение (доверие 32) [75F6D77E]
Трек 12 точное извлечение (доверие 32) [9012EBF7]
Трек 13 точное извлечение (доверие 31) [1560EE02]
Трек 14 точное извлечение (доверие 31) [4FA2BA4C]
Все треки извлечены точно
Конец отчёта

CD3:

Треклист:

01. Prelude
02. Treulich gefuhrt ziehet dahin
03. Das susse Lied verhalt
04. Fuhl' ich zu dir so suss mein Herz entbrennen
05. Atmest du nicht mit mir die sussen Dufte?
06. Hochstes Vertraun hast du mir schon zu danken
07. Weh, nun ist all unser Gluck dahin!
08. Heil Konig Heinrich!
09. Macht Platz dem Helden von Brabant!
10. In fernem Land, unnahbar euren Schritten
11. Mein Lieber Schwan!
Total 58.45

Лог создания рипа:

Exact Audio Copy V0.99 prebeta 5 from 4. May 2009
Отчёт EAC об извлечении, выполненном 1. декабря 2011, 8:34
Sawallisch 1962 / Wagner Lohengrin CD3
Дисковод: _NEC DVD_RW ND-3570A Adapter: 3 ID: 1
Режим чтения : Достоверность
Использование точного потока : Да
Отключение кэша аудио : Да
Использование указателей C2 : Нет
Коррекция смещения при чтении : 48
Способность читать области Lead-in и Lead-out : Нет
Заполнение пропущенных сэмплов тишиной : Да
Удаление блоков с тишиной в начале и конце : Нет
При вычислениях CRC использовались нулевые сэмплы : Да
Интерфейс : Установленный внешний ASPI-интерфейс
Выходной формат : Пользовательский кодировщик
Выбранный битрейт : 128 kBit/s
Качество : Высокий
Добавление ID3-тэга : Нет
Утилита сжатия : C:\Program Files\Exact Audio Copy\Flac\flac.exe
Дополнительные параметры : -8 -V -T "ARTIST=%a" -T "TITLE=%t" -T "ALBUM=%g" -T "DATE=%y" -T "TRACKNUMBER=%n" -T "GENRE=%m" -T "COMMENT=EAC FLAC -8" %s
TOC извлечённого CD
Трек | Старт | Длительность | Начальный сектор | Конечный сектор
---------------------------------------------------------------------
1 | 0:00.33 | 2:57.62 | 33 | 13369
2 | 2:58.20 | 4:48.50 | 13370 | 35019
3 | 7:46.70 | 1:39.38 | 35020 | 42482
4 | 9:26.33 | 4:48.50 | 42483 | 64132
5 | 14:15.08 | 4:30.12 | 64133 | 84394
6 | 18:45.20 | 7:27.13 | 84395 | 117932
7 | 26:12.33 | 4:11.00 | 117933 | 136757
8 | 30:23.33 | 7:17.00 | 136758 | 169532
9 | 37:40.33 | 5:48.25 | 169533 | 195657
10 | 43:28.58 | 6:51.37 | 195658 | 226519
11 | 50:20.20 | 8:25.13 | 226520 | 264407
Характеристики диапазона извлечения и сообщения об ошибках
Выбранный диапазон
Имя файла F:\Exact Audio Copy\Wagner - The Great Operas from the Bayreuth Festival\3. Lohengrin - Sawallisch (1962)\CD3\Sawallisch 1962 - Wagner Lohengrin CD3.wav
Пиковый уровень 99.1 %
Качество диапазона 100.0 %
CRC теста 90E81FC3
CRC копии 90E81FC3
Копирование... OK
Ошибок не произошло
AccurateRip: сводка
Трек 1 точное извлечение (доверие 31) [BA10E1C3]
Трек 2 точное извлечение (доверие 32) [9186287B]
Трек 3 точное извлечение (доверие 32) [38A43705]
Трек 4 точное извлечение (доверие 32) [3F87B987]
Трек 5 точное извлечение (доверие 32) [E7F0DDDB]
Трек 6 точное извлечение (доверие 32) [991816FB]
Трек 7 точное извлечение (доверие 32) [8E50DF98]
Трек 8 точное извлечение (доверие 32) [EF36C829]
Трек 9 точное извлечение (доверие 32) [DDAE8403]
Трек 10 точное извлечение (доверие 32) [8113F84B]
Трек 11 точное извлечение (доверие 32) [CE74F28D]
Все треки извлечены точно
Конец отчёта

Исполнители:

Franz Crass (Heinrich der Vogler)
Jess Thomas (Lohengrin)
Anja Silja (Elsa von Brabant)
Ramon Vinay (Friedrich von Telramund)
Astrid Varnay (Ortrud)
Tom Krause (Der Heerrufer des K�nigs)
Chor und Orchester der Bayreuther Festspiele
Chorus master Wilhelm Pitz
Wolfgang Sawallisch

"Tristan und Isolde" (recorded live at the 1966 Bayreuth Festival):

CD1:

Треклист:

01. Act I. Prelude
02. Act I. Scene 1 - Westwarts schweift der Blick
03. Act I. Scene 2 - Frisch weht der Wind der Heimat zu
04. Act I. Scene 3 - Weh, ach wehe! Dies zu dulden
05. Act I. Scene 4 - Auf ! Auf ! Ihr Frauen ! Frisch und froh!
06. Act I. Scene 4 - Herr Tristan trete nah!
07. Act I. Scene 5 - Begehrt, Herrin, was Ihr wunscht
Total 75.10

Лог создания рипа:

Exact Audio Copy V0.99 prebeta 5 from 4. May 2009
Отчёт EAC об извлечении, выполненном 1. декабря 2011, 13:55
Bohm 1966 / Wagner Tristan und Isolde CD1
Дисковод: _NEC DVD_RW ND-3570A Adapter: 3 ID: 1
Режим чтения : Достоверность
Использование точного потока : Да
Отключение кэша аудио : Да
Использование указателей C2 : Нет
Коррекция смещения при чтении : 48
Способность читать области Lead-in и Lead-out : Нет
Заполнение пропущенных сэмплов тишиной : Да
Удаление блоков с тишиной в начале и конце : Нет
При вычислениях CRC использовались нулевые сэмплы : Да
Интерфейс : Установленный внешний ASPI-интерфейс
Выходной формат : Пользовательский кодировщик
Выбранный битрейт : 128 kBit/s
Качество : Высокий
Добавление ID3-тэга : Нет
Утилита сжатия : C:\Program Files\Exact Audio Copy\Flac\flac.exe
Дополнительные параметры : -8 -V -T "ARTIST=%a" -T "TITLE=%t" -T "ALBUM=%g" -T "DATE=%y" -T "TRACKNUMBER=%n" -T "GENRE=%m" -T "COMMENT=EAC FLAC -8" %s
TOC извлечённого CD
Трек | Старт | Длительность | Начальный сектор | Конечный сектор
---------------------------------------------------------------------
1 | 0:00.00 | 10:38.50 | 0 | 47899
2 | 10:38.50 | 5:33.00 | 47900 | 72874
3 | 16:11.50 | 9:17.50 | 72875 | 114699
4 | 25:29.25 | 18:33.00 | 114700 | 198174
5 | 44:02.25 | 6:50.30 | 198175 | 228954
6 | 50:52.55 | 17:56.67 | 228955 | 309721
7 | 68:49.47 | 6:20.28 | 309722 | 338249
Характеристики диапазона извлечения и сообщения об ошибках
Выбранный диапазон
Имя файла F:\Exact Audio Copy\Wagner - The Great Operas from the Bayreuth Festival\4. Tristan und Isolde - Bohm (1966)\CD1\Bohm 1966 - Wagner Tristan und Isolde CD1.wav
Пиковый уровень 99.9 %
Качество диапазона 100.0 %
CRC теста 5E9EC021
CRC копии 5E9EC021
Копирование... OK
Ошибок не произошло
AccurateRip: сводка
Трек 1 точное извлечение (доверие 49) [549DA50A]
Трек 2 точное извлечение (доверие 48) [EC91E40F]
Трек 3 точное извлечение (доверие 49) [E778FBBE]
Трек 4 точное извлечение (доверие 48) [95EDC721]
Трек 5 точное извлечение (доверие 48) [FE579E38]
Трек 6 точное извлечение (доверие 48) [A7340D3D]
Трек 7 точное извлечение (доверие 49) [B35902B1]
Все треки извлечены точно
Конец отчёта

CD2:

Треклист:

01. Akt 2 - Einleitung
02. Akt 2 - Szene 1 - Horst Du Sie Noch
03. Akt 2 - Szene 2 - Isolde! Geliebte! - Tristan! Geliebter!
04. Akt 2 - Szene 2 - O Sink Hernieder, Nacht Der Liebe
05. Akt 2 - Szene 2 - Einsam Wachend In Der Nacht
06. Akt 2 - Szene 2 - Lausch, Geliebter! - Lass Mich Sterben!
07. Akt 2 - Szene 2 - Doch Unsre Liebe, Heisst Sie Nicht Tristan Und - Isolde
08. Akt 2 - Szene 2 - So Starben Wir, Um Ungetrennt
09. Akt 2 - Szene 3 - Rette Dich, Tristan!
10. Akt 2 - Szene 3 - Tatest Du's Wirklich - Wahnst Du Das
11. Akt 2 - Szene 3 - O Konig, Das Kann Ich Dir Nicht Sagen
Total 72.18

Лог создания рипа:

Exact Audio Copy V0.99 prebeta 5 from 4. May 2009
Отчёт EAC об извлечении, выполненном 1. декабря 2011, 15:07
Bohm 1966 / Wagner Tristan Und Isolde CD2
Дисковод: _NEC DVD_RW ND-3570A Adapter: 3 ID: 1
Режим чтения : Достоверность
Использование точного потока : Да
Отключение кэша аудио : Да
Использование указателей C2 : Нет
Коррекция смещения при чтении : 48
Способность читать области Lead-in и Lead-out : Нет
Заполнение пропущенных сэмплов тишиной : Да
Удаление блоков с тишиной в начале и конце : Нет
При вычислениях CRC использовались нулевые сэмплы : Да
Интерфейс : Установленный внешний ASPI-интерфейс
Выходной формат : Пользовательский кодировщик
Выбранный битрейт : 128 kBit/s
Качество : Высокий
Добавление ID3-тэга : Нет
Утилита сжатия : C:\Program Files\Exact Audio Copy\Flac\flac.exe
Дополнительные параметры : -8 -V -T "ARTIST=%a" -T "TITLE=%t" -T "ALBUM=%g" -T "DATE=%y" -T "TRACKNUMBER=%n" -T "GENRE=%m" -T "COMMENT=EAC FLAC -8" %s
TOC извлечённого CD
Трек | Старт | Длительность | Начальный сектор | Конечный сектор
---------------------------------------------------------------------
1 | 0:00.00 | 1:58.67 | 0 | 8916
2 | 1:58.67 | 13:07.05 | 8917 | 67946
3 | 15:05.72 | 15:06.28 | 67947 | 135924
4 | 30:12.25 | 4:49.15 | 135925 | 157614
5 | 35:01.40 | 2:28.65 | 157615 | 168779
6 | 37:30.30 | 4:09.00 | 168780 | 187454
7 | 41:39.30 | 2:11.57 | 187455 | 197336
8 | 43:51.12 | 7:34.35 | 197337 | 231421
9 | 51:25.47 | 1:41.23 | 231422 | 239019
10 | 53:06.70 | 11:03.30 | 239020 | 288774
11 | 64:10.25 | 8:07.50 | 288775 | 325349
Характеристики диапазона извлечения и сообщения об ошибках
Выбранный диапазон
Имя файла F:\Exact Audio Copy\Wagner - The Great Operas from the Bayreuth Festival\4. Tristan und Isolde - Bohm (1966)\CD2\Bohm 1966 - Wagner Tristan Und Isolde CD2.wav
Пиковый уровень 100.0 %
Качество диапазона 100.0 %
CRC теста 7041F745
CRC копии 7041F745
Копирование... OK
Ошибок не произошло
AccurateRip: сводка
Трек 1 точное извлечение (доверие 50) [01E037D6]
Трек 2 точное извлечение (доверие 50) [8D2D547D]
Трек 3 точное извлечение (доверие 50) [5278A9E7]
Трек 4 точное извлечение (доверие 50) [0CBEFEA4]
Трек 5 точное извлечение (доверие 50) [C23952F5]
Трек 6 точное извлечение (доверие 50) [05AC7A97]
Трек 7 точное извлечение (доверие 50) [70DDB73E]
Трек 8 точное извлечение (доверие 50) [E6EFF233]
Трек 9 точное извлечение (доверие 50) [6099E2CC]
Трек 10 точное извлечение (доверие 49) [7E5CADFF]
Трек 11 точное извлечение (доверие 49) [42907C2A]
Все треки извлечены точно
Конец отчёта

CD3:

Треклист:

01. Act III. Scene 1 - Prelude
02. Act III. Scene 1 - Ein Hirtenreigen
03. Act III. Scene 1 - Kurwenal! He! Sag, Kurwenal!
04. Act III. Scene 1 - Hei nun! Wie du kamst?
05. Act III. Scene 1 - Noch losch das Licht nicht aus
06. Act III. Scene 1 - Noch ist kein Schiff zu sehn!
07. Act III. Scene 1 - Bist du nun tot? Lebst du noch?
08. Act III. Scene 2 - O diese Sonne! Ha, dieser Tag!
09. Act III. Scene 2 - Ha! Ich bin's, sussester Freund!
10. Act III. Scene 3 - Kurwenal! Hor! Ein zweites Schiff!
11. Act III. Scene 3 - Mild und leise wie er lachelt
Total 71.20

Лог создания рипа:

Exact Audio Copy V0.99 prebeta 5 from 4. May 2009
Отчёт EAC об извлечении, выполненном 1. декабря 2011, 15:38
Bohm1966 / Wagner Tristan und Isolde CD3
Дисковод: _NEC DVD_RW ND-3570A Adapter: 3 ID: 1
Режим чтения : Достоверность
Использование точного потока : Да
Отключение кэша аудио : Да
Использование указателей C2 : Нет
Коррекция смещения при чтении : 48
Способность читать области Lead-in и Lead-out : Нет
Заполнение пропущенных сэмплов тишиной : Да
Удаление блоков с тишиной в начале и конце : Нет
При вычислениях CRC использовались нулевые сэмплы : Да
Интерфейс : Установленный внешний ASPI-интерфейс
Выходной формат : Пользовательский кодировщик
Выбранный битрейт : 128 kBit/s
Качество : Высокий
Добавление ID3-тэга : Нет
Утилита сжатия : C:\Program Files\Exact Audio Copy\Flac\flac.exe
Дополнительные параметры : -8 -V -T "ARTIST=%a" -T "TITLE=%t" -T "ALBUM=%g" -T "DATE=%y" -T "TRACKNUMBER=%n" -T "GENRE=%m" -T "COMMENT=EAC FLAC -8" %s
TOC извлечённого CD
Трек | Старт | Длительность | Начальный сектор | Конечный сектор
---------------------------------------------------------------------
1 | 0:00.00 | 4:14.37 | 0 | 19086
2 | 4:14.37 | 2:34.45 | 19087 | 30681
3 | 6:49.07 | 8:08.53 | 30682 | 67334
4 | 14:57.60 | 9:18.60 | 67335 | 109244
5 | 24:16.45 | 4:59.32 | 109245 | 131701
6 | 29:16.02 | 11:13.23 | 131702 | 182199
7 | 40:29.25 | 9:03.35 | 182200 | 222959
8 | 49:32.60 | 3:11.02 | 222960 | 237286
9 | 52:43.62 | 4:59.48 | 237287 | 259759
10 | 57:43.35 | 7:21.12 | 259760 | 292846
11 | 65:04.47 | 6:15.28 | 292847 | 320999
Характеристики диапазона извлечения и сообщения об ошибках
Выбранный диапазон
Имя файла F:\Exact Audio Copy\Wagner - The Great Operas from the Bayreuth Festival\4. Tristan und Isolde - Bohm (1966)\CD3\Bohm1966 - Wagner Tristan und Isolde CD3.wav
Пиковый уровень 100.0 %
Качество диапазона 99.9 %
CRC теста 1A2000E6
CRC копии 1A2000E6
Копирование... OK
Ошибок не произошло
AccurateRip: сводка
Трек 1 точное извлечение (доверие 45) [2ACE5AD4]
Трек 2 точное извлечение (доверие 45) [5EF30525]
Трек 3 точное извлечение (доверие 45) [288FEC79]
Трек 4 точное извлечение (доверие 45) [9DF6E4F0]
Трек 5 точное извлечение (доверие 45) [95936F8E]
Трек 6 точное извлечение (доверие 45) [5AD494FB]
Трек 7 точное извлечение (доверие 45) [65002DCB]
Трек 8 точное извлечение (доверие 45) [C5552525]
Трек 9 точное извлечение (доверие 44) [A2726E44]
Трек 10 точное извлечение (доверие 45) [0EBFCB71]
Трек 11 точное извлечение (доверие 46) [6D9C6C5B]
Все треки извлечены точно
Конец отчёта

Исполнители:

Wolfgang Windgassen (Tristan)
Martti Talvela (K�nig Marke)
Birgit Nilsson (Isolde)
Eberhard Waechter (Kurwenal)
Claude Heater (Melot)
Christa Ludwig (Brang�ne)
Erwin Wohlfahrt (Ein Hirt)
Gerd Nienstedt (Ein Steuermann)
Peter Schreier (Ein junger Seeman)
Chor und Orchester der Bayreuther Festspiele
Chorus master Wilhelm Pitz
Karl B�hm

"Die Meistersinger von Nürnberg" (recorded live at the 1974 Bayreuth Festival):

CD1:

Треклист:

01. Prelude
02. Act 1 - Da zu dir der Heiland kam
03. Act 1 - Verweilt! - Ein Wort
04. Act 1 - David! Was stehst?
05. Act 1 - Mein Herr! Der Singer Meisterschlag
06. Act 1 - Der Meister Ton und Weisen
07. Act 1 - Seid meiner Treue wohl versehen
08. Act 1 - Zu einer Freiung
09. Act 1 - Nicht doch, ihr Meister
10. Act 1 - Verzeiht, vielleicht schon ginget ihr zu weit
11. Act 1 - Dacht ich mir's doch!
12. Act 1 - Am stillen Herd
13. Act 1 - Nun, Meister! Wenn's gefallt
14. Act 1 - Was Euch zum Liede Richt und Schnur
Total 66.24

Лог создания рипа:

Exact Audio Copy V0.99 prebeta 5 from 4. May 2009
Отчёт EAC об извлечении, выполненном 1. декабря 2011, 16:51
Varviso 1974 / Wagner Die Meistersinger von Nurnberg CD1
Дисковод: _NEC DVD_RW ND-3570A Adapter: 3 ID: 1
Режим чтения : Достоверность
Использование точного потока : Да
Отключение кэша аудио : Да
Использование указателей C2 : Нет
Коррекция смещения при чтении : 48
Способность читать области Lead-in и Lead-out : Нет
Заполнение пропущенных сэмплов тишиной : Да
Удаление блоков с тишиной в начале и конце : Нет
При вычислениях CRC использовались нулевые сэмплы : Да
Интерфейс : Установленный внешний ASPI-интерфейс
Выходной формат : Пользовательский кодировщик
Выбранный битрейт : 128 kBit/s
Качество : Высокий
Добавление ID3-тэга : Нет
Утилита сжатия : C:\Program Files\Exact Audio Copy\Flac\flac.exe
Дополнительные параметры : -8 -V -T "ARTIST=%a" -T "TITLE=%t" -T "ALBUM=%g" -T "DATE=%y" -T "TRACKNUMBER=%n" -T "GENRE=%m" -T "COMMENT=EAC FLAC -8" %s
TOC извлечённого CD
Трек | Старт | Длительность | Начальный сектор | Конечный сектор
---------------------------------------------------------------------
1 | 0:00.00 | 9:08.28 | 0 | 41127
2 | 9:08.28 | 3:06.65 | 41128 | 55142
3 | 12:15.18 | 8:48.05 | 55143 | 94747
4 | 21:03.23 | 1:56.48 | 94748 | 103495
5 | 22:59.71 | 2:53.12 | 103496 | 116482
6 | 25:53.08 | 10:05.60 | 116483 | 161917
7 | 35:58.68 | 4:08.08 | 161918 | 180525
8 | 40:07.01 | 2:10.55 | 180526 | 190330
9 | 42:17.56 | 6:33.50 | 190331 | 219855
10 | 48:51.31 | 5:10.32 | 219856 | 243137
11 | 54:01.63 | 2:23.28 | 243138 | 253890
12 | 56:25.16 | 5:02.55 | 253891 | 276595
13 | 61:27.71 | 2:20.67 | 276596 | 287162
14 | 63:48.63 | 2:35.12 | 287163 | 298799
Характеристики диапазона извлечения и сообщения об ошибках
Выбранный диапазон
Имя файла F:\Exact Audio Copy\Wagner - The Great Operas from the Bayreuth Festival\5. Die Meistersinger von Nurnberg - Varviso (1974)\CD1\Varviso 1974 - Wagner Die Meistersinger von Nurnberg CD1.wav
Пиковый уровень 100.0 %
Качество диапазона 100.0 %
CRC теста 1C12CAA7
CRC копии 1C12CAA7
Копирование... OK
Ошибок не произошло
AccurateRip: сводка
Трек 1 точное извлечение (доверие 32) [1B0E8074]
Трек 2 точное извлечение (доверие 32) [D3A4E96C]
Трек 3 точное извлечение (доверие 32) [50771863]
Трек 4 точное извлечение (доверие 32) [BBAD6503]
Трек 5 точное извлечение (доверие 32) [591A99C7]
Трек 6 точное извлечение (доверие 32) [8D8CEFE8]
Трек 7 точное извлечение (доверие 32) [AF603B40]
Трек 8 точное извлечение (доверие 32) [B2C7C9F1]
Трек 9 точное извлечение (доверие 32) [DDE1F871]
Трек 10 точное извлечение (доверие 31) [2AE21FDA]
Трек 11 точное извлечение (доверие 32) [450A8003]
Трек 12 точное извлечение (доверие 32) [D549B018]
Трек 13 точное извлечение (доверие 32) [57022557]
Трек 14 точное извлечение (доверие 32) [70BF988B]
Все треки извлечены точно
Конец отчёта

CD2:

Треклист:

01. Act 1 - Fur dich, Geliebte, sei's getan - Fanget an!
02. Act 1 - Halt, Meister! Nicht so geeilt!
03. Act 2 - Johannistag! Johannistag!
04. Act 2 - Lass sehn, ob Meister Sachs zu Haus?
05. Act 2 - Was duftet doch der Flieder
06. Act 2 - Gut'n Abend, Meister!
07. Act 2 - Das dacht ich wohl
08. Act 2 - Da ist er!
09. Act 2 - Geliebter, spare den Zorn
10. Act 2 - Uble Dinge, die ich da merk
11. Act 2 - Jerum! Jerum!
12. Act 2 - Den Tag seh' ich erscheinen
13. Act 2 - Mit den Schuhen ward ich fertig schier
Total 72.47

Лог создания рипа:

Exact Audio Copy V0.99 prebeta 5 from 4. May 2009
Отчёт EAC об извлечении, выполненном 1. декабря 2011, 17:40
Varviso 1974 / Wagner Die Meistersinger von Nurnberg CD2
Дисковод: _NEC DVD_RW ND-3570A Adapter: 3 ID: 1
Режим чтения : Достоверность
Использование точного потока : Да
Отключение кэша аудио : Да
Использование указателей C2 : Нет
Коррекция смещения при чтении : 48
Способность читать области Lead-in и Lead-out : Нет
Заполнение пропущенных сэмплов тишиной : Да
Удаление блоков с тишиной в начале и конце : Нет
При вычислениях CRC использовались нулевые сэмплы : Да
Интерфейс : Установленный внешний ASPI-интерфейс
Выходной формат : Пользовательский кодировщик
Выбранный битрейт : 128 kBit/s
Качество : Высокий
Добавление ID3-тэга : Нет
Утилита сжатия : C:\Program Files\Exact Audio Copy\Flac\flac.exe
Дополнительные параметры : -8 -V -T "ARTIST=%a" -T "TITLE=%t" -T "ALBUM=%g" -T "DATE=%y" -T "TRACKNUMBER=%n" -T "GENRE=%m" -T "COMMENT=EAC FLAC -8" %s
TOC извлечённого CD
Трек | Старт | Длительность | Начальный сектор | Конечный сектор
---------------------------------------------------------------------
1 | 0:00.33 | 5:53.05 | 33 | 26512
2 | 5:53.38 | 7:40.70 | 26513 | 61082
3 | 13:34.33 | 3:53.60 | 61083 | 78617
4 | 17:28.18 | 6:03.10 | 78618 | 105852
5 | 23:31.28 | 5:52.17 | 105853 | 132269
6 | 29:23.45 | 8:17.18 | 132270 | 169562
7 | 37:40.63 | 1:56.60 | 169563 | 178322
8 | 39:37.48 | 3:56.20 | 178323 | 196042
9 | 43:33.68 | 2:07.22 | 196043 | 205589
10 | 45:41.15 | 2:44.45 | 205590 | 217934
11 | 48:25.60 | 12:48.50 | 217935 | 275584
12 | 61:14.35 | 5:31.68 | 275585 | 300477
13 | 66:46.28 | 6:01.05 | 300478 | 327557
Характеристики диапазона извлечения и сообщения об ошибках
Выбранный диапазон
Имя файла F:\Exact Audio Copy\Wagner - The Great Operas from the Bayreuth Festival\5. Die Meistersinger von Nurnberg - Varviso (1974)\CD2\Varviso 1974 - Wagner Die Meistersinger von Nurnberg CD2.wav
Пиковый уровень 100.0 %
Качество диапазона 100.0 %
CRC теста ACAF4E24
CRC копии ACAF4E24
Копирование... OK
Ошибок не произошло
AccurateRip: сводка
Трек 1 точное извлечение (доверие 32) [5F72547D]
Трек 2 точное извлечение (доверие 32) [3D443B67]
Трек 3 точное извлечение (доверие 31) [CBC5E9AC]
Трек 4 точное извлечение (доверие 32) [ADC7EBB0]
Трек 5 точное извлечение (доверие 32) [0FA2BFBA]
Трек 6 точное извлечение (доверие 32) [374D12E2]
Трек 7 точное извлечение (доверие 32) [939D8A4A]
Трек 8 точное извлечение (доверие 32) [D7850499]
Трек 9 точное извлечение (доверие 32) [ADB9E803]
Трек 10 точное извлечение (доверие 32) [EE01C1A3]
Трек 11 точное извлечение (доверие 32) [B285EC12]
Трек 12 точное извлечение (доверие 32) [74D278B6]
Трек 13 точное извлечение (доверие 32) [04EA02FD]
Все треки извлечены точно
Конец отчёта

CD3:

Треклист:

01. Act 3 - Prelude
02. Act 3 - Gleich, Meister! Hier!
03. Act 3 - Wahn! Wahn! Uberall Wahn!
04. Act 3 - Gruss Gott, mein Junker
05. Act 3 - Morgenlich leuchtend
06. Act 3 - Ein Werbelied! Von Sachs!
07. Act 3 - Das Gedicht ї Hier liess ich's
08. Act 3 - Sieh, Evchen! Dacht ich's doch
09. Act 3 - Hat man mit dem Schuhwerk
10. Act 3 - Mein Kind, von Tristan und Isolde
Total 67.55

Лог создания рипа:

Exact Audio Copy V0.99 prebeta 5 from 4. May 2009
Отчёт EAC об извлечении, выполненном 1. декабря 2011, 18:44
Varviso1974 / Wagner Die Meistersinger von Nurnberg CD3
Дисковод: _NEC DVD_RW ND-3570A Adapter: 3 ID: 1
Режим чтения : Достоверность
Использование точного потока : Да
Отключение кэша аудио : Да
Использование указателей C2 : Нет
Коррекция смещения при чтении : 48
Способность читать области Lead-in и Lead-out : Нет
Заполнение пропущенных сэмплов тишиной : Да
Удаление блоков с тишиной в начале и конце : Нет
При вычислениях CRC использовались нулевые сэмплы : Да
Интерфейс : Установленный внешний ASPI-интерфейс
Выходной формат : Пользовательский кодировщик
Выбранный битрейт : 128 kBit/s
Качество : Высокий
Добавление ID3-тэга : Нет
Утилита сжатия : C:\Program Files\Exact Audio Copy\Flac\flac.exe
Дополнительные параметры : -8 -V -T "ARTIST=%a" -T "TITLE=%t" -T "ALBUM=%g" -T "DATE=%y" -T "TRACKNUMBER=%n" -T "GENRE=%m" -T "COMMENT=EAC FLAC -8" %s
TOC извлечённого CD
Трек | Старт | Длительность | Начальный сектор | Конечный сектор
---------------------------------------------------------------------
1 | 0:00.33 | 5:37.00 | 33 | 25307
2 | 5:37.33 | 7:29.57 | 25308 | 59039
3 | 13:07.15 | 7:21.30 | 59040 | 92144
4 | 20:28.45 | 9:02.63 | 92145 | 132857
5 | 29:31.33 | 9:43.27 | 132858 | 176609
6 | 39:14.60 | 6:59.48 | 176610 | 208082
7 | 46:14.33 | 7:45.15 | 208083 | 242972
8 | 53:59.48 | 5:52.47 | 242973 | 269419
9 | 59:52.20 | 4:11.58 | 269420 | 288302
10 | 64:04.03 | 3:51.30 | 288303 | 305657
Характеристики диапазона извлечения и сообщения об ошибках
Выбранный диапазон
Имя файла F:\Exact Audio Copy\Wagner - The Great Operas from the Bayreuth Festival\5. Die Meistersinger von Nurnberg - Varviso (1974)\CD3\Varviso1974 - Wagner Die Meistersinger von Nurnberg CD3.wav
Пиковый уровень 100.0 %
Качество диапазона 99.9 %
CRC теста B009E32A
CRC копии B009E32A
Копирование... OK
Ошибок не произошло
AccurateRip: сводка
Трек 1 точное извлечение (доверие 32) [F393BB8C]
Трек 2 точное извлечение (доверие 32) [6AB5A5A0]
Трек 3 точное извлечение (доверие 32) [9C6C45E5]
Трек 4 точное извлечение (доверие 32) [A76A8233]
Трек 5 точное извлечение (доверие 31) [E84CE01F]
Трек 6 точное извлечение (доверие 31) [8F8EE49F]
Трек 7 точное извлечение (доверие 32) [A53C3F1C]
Трек 8 точное извлечение (доверие 32) [68CEC0FD]
Трек 9 точное извлечение (доверие 31) [CF1DC498]
Трек 10 точное извлечение (доверие 32) [04328B45]
Все треки извлечены точно
Конец отчёта

CD4:

Треклист:

01. Act 3 - Die ''selige Morgentraum-Deutweise''
02. Act 3 - Selig, wie die Sonne
03. Act 3 - Sankt Krispin, lobet ihn!
04. Act 3 - Ihr tanzt
05. Act 3 - Wacht auf! Es naht gen den Tag
06. Act 3 - Euch macht ihr's leicht
07. Act 3 - Morgen ich leuchte
08. Act 3 - Morgenlich leuchtend
09. Act 3 - Verachtet mir die Meister nicht
Total 47.46

Лог создания рипа:

Exact Audio Copy V0.99 prebeta 5 from 4. May 2009
Отчёт EAC об извлечении, выполненном 1. декабря 2011, 19:56
Varviso1974 / Wagner Die Meistersinger von Nurnberg CD4
Дисковод: _NEC DVD_RW ND-3570A Adapter: 3 ID: 1
Режим чтения : Достоверность
Использование точного потока : Да
Отключение кэша аудио : Да
Использование указателей C2 : Нет
Коррекция смещения при чтении : 48
Способность читать области Lead-in и Lead-out : Нет
Заполнение пропущенных сэмплов тишиной : Да
Удаление блоков с тишиной в начале и конце : Нет
При вычислениях CRC использовались нулевые сэмплы : Да
Интерфейс : Установленный внешний ASPI-интерфейс
Выходной формат : Пользовательский кодировщик
Выбранный битрейт : 128 kBit/s
Качество : Высокий
Добавление ID3-тэга : Нет
Утилита сжатия : C:\Program Files\Exact Audio Copy\Flac\flac.exe
Дополнительные параметры : -8 -V -T "ARTIST=%a" -T "TITLE=%t" -T "ALBUM=%g" -T "DATE=%y" -T "TRACKNUMBER=%n" -T "GENRE=%m" -T "COMMENT=EAC FLAC -8" %s
TOC извлечённого CD
Трек | Старт | Длительность | Начальный сектор | Конечный сектор
---------------------------------------------------------------------
1 | 0:00.33 | 0:50.50 | 33 | 3832
2 | 0:51.08 | 5:00.57 | 3833 | 26389
3 | 5:51.65 | 5:17.43 | 26390 | 50207
4 | 11:09.33 | 5:57.12 | 50208 | 76994
5 | 17:06.45 | 2:13.25 | 76995 | 86994
6 | 19:19.70 | 7:12.00 | 86995 | 119394
7 | 26:31.70 | 7:56.38 | 119395 | 155132
8 | 34:28.33 | 7:12.20 | 155133 | 187552
9 | 41:40.53 | 6:05.55 | 187553 | 214982
Характеристики диапазона извлечения и сообщения об ошибках
Выбранный диапазон
Имя файла F:\Exact Audio Copy\Wagner - The Great Operas from the Bayreuth Festival\5. Die Meistersinger von Nurnberg - Varviso (1974)\CD4\Varviso1974 - Wagner Die Meistersinger von Nurnberg CD4.wav
Пиковый уровень 100.0 %
Качество диапазона 100.0 %
CRC теста 4D390480
CRC копии 4D390480
Копирование... OK
Ошибок не произошло
AccurateRip: сводка
Трек 1 точное извлечение (доверие 33) [E110D04F]
Трек 2 точное извлечение (доверие 33) [F9C7941C]
Трек 3 точное извлечение (доверие 32) [0F1BB90F]
Трек 4 точное извлечение (доверие 33) [3A1D5C68]
Трек 5 точное извлечение (доверие 33) [99A59C26]
Трек 6 точное извлечение (доверие 33) [A64775FE]
Трек 7 точное извлечение (доверие 33) [3F48E03B]
Трек 8 точное извлечение (доверие 33) [14E672D9]
Трек 9 точное извлечение (доверие 33) [50980D24]
Все треки извлечены точно
Конец отчёта

Исполнители:

Karl Ridderbusch (Hans Sachs)
Hans Sotin (Veit Pogner)
Heribert Steinbach (Kunz Vogelgesang)
J�zsef Dene (Konrad Nachtigall)
Klaus Hirte (Sixtus Beckmesser)
Gerd Nienstedt (Fritz Kothner)
Robert Licha (Balthasar Zorn)
Wolf Appel (Ulrich Eiβlinger)
Norbert Orth (Augustin Moser)
Heinz Feldhof (Hermann Ortel)
Hartmut Bauer (Hans Schwarz)
Nikolaus Hillebrand (Hans Foltz)
Jean Cox (Walther von Stolzing)
Frieder Stricker (David)
Hannelore Bode (Eva)
Anna Reynolds (Magdalene)
Bernd Weikl (Ein Nachw�chter)
Chor und Orchester der Bayreuther Festspiele
Chorus master Norbert Balatsch
Silvio Varviso

"Das Rheingold" (recorded live at the 1971 Bayreuth Festival):

CD1:

Треклист:

01. Prelude
02. Weia! Waga! Woge, du Welle!
03. Garstig glatter glitschiger Glimmer!
04. Wallala! Lalaleia! Leialalei!
05. Lugt, Schwestern! Die Weckerin lacht in den Grund!
06. Der Welt Erbe gewann' ich zu eigen durch dich
07. Orchesterzwischenspiel
08. Wotan! Gemahl! Erwache!
09. Nur Wonne schafft dir, was mich erschreckt
10. Sanft schloss Schlaf dein Aug
11. Zu mir, Freia!
12. Endlich, Loge!
13. Immer ist Undank Loges Lohn
14. Taugte wohl des goldnen Tandes
15. Hor', Wotan, der Harrenden Wort!
16. Jetzt fand ich's! Hort, was euch fehlt!
17. Orchesterzwischenspiel; Abstieg nach Nibelheim
18. Hehe! hehe! hieher! hieher!
Total 69.28

Лог создания рипа:

Exact Audio Copy V0.99 prebeta 5 from 4. May 2009
Отчёт EAC об извлечении, выполненном 1. декабря 2011, 20:39
Bohm1971 / Wagner Das Rheingold CD1
Дисковод: _NEC DVD_RW ND-3570A Adapter: 3 ID: 1
Режим чтения

_________________
Other forum [Profile] [PM]
Display posts from previous:    
Reply to topic

The time now is: Today 13:52

All times are GMT + 3 Hours



You cannot post new topics in this forum
You cannot reply to topics in this forum
You cannot edit your posts in this forum
You cannot delete your posts in this forum
You cannot vote in polls in this forum
You cannot attach files in this forum
You cannot download files in this forum