Today is a free download without charge Download

(opera) Антонин Дворжак - Русалка /Antonin Dvorak - Rusalka (Milada Subrtova, Ivo Zidek, Eduard Haken ... Prague National Theatre Chorus and Orchestra - conductor Zdenek Chalabala) - 1995 (1961) APE (image+.cue) lossless

Reply to topic
 
Author
Message

Koralina ®

Longevity: 9 years 4 months

Posts: 994

Location: Lithuania

Торрент-статистика

Post 10-Dec-2011 15:28

[Quote]

Антонин Дворжак - Русалка /Antonin Dvorak - Rusalka
Жанр: opera
Страна-производитель диска: Czech Republic
Год издания диска: 1995
Издатель (лейбл): Supraphon
Номер по каталогу: SU 0013-2 612
Дата записи: 1961
Аудиокодек: APE
Тип рипа: image+.cue
Битрейт аудио: lossless
Продолжительность: 2:28:54
Источник: скачано с
сайт-источник/ник/другое: avaxhome.ws
Наличие сканов в содержимом раздачи: да
Треклист:
CD 1
1. Predehra
2. Hou hou
3. Hastrmanku, taticku
4. Sem casto prichazi
5. Mesicku na nebi hlubokem
6. Staleta moudrost tva
7. Cury mury fuk
8. Zde mihla se
9. Ustante v lovu, na hrad vratt se
10. Vim, ze jsi kouzlo, ktere mine
11. Jarku, jarku
12. Jiz tyden dlis mi po boku
13. Slavnostni hudba. Balet
CD 2
1. Cely svet neda ti, neda
2. Kvetiny bile po ceste
3. Rusalko, znas mne, znas
4. Vam v ocich divny zar se zraci
5. Necitelna vodni moci
6. Aj, aj? Uz jsi se navratila vcetne Jezibaba
7. Vyrvana zivotu
8. Ze se bojis? Tresky plesky
9. Mam zlate vlasky, mam
10. Bila moje lani
11. Milacku, znas mne, znas
Исполнители:
Milada Šubrtová (Rusalka, soprano)
Ivo Žídek (Prince, tenor)
Eduard Haken (Watersprite, bass)
Maie Ovcacíková (Ježibaba, contralto)
Alena Míková (Foreign Princess, mezzo-soprano)
Jirí Joran (Gamekeeper, baritone)
Ivana Mixová (Turnspit, soprano)
Prague National Theatre Chorus and Orchestra - Zdenek Chalabala (conductor)

Лог создания рипа CD1

Exact Audio Copy V0.99 prebeta 5 from 4. May 2009
EAC extraction logfile from 15. April 2010, 23:42
Dvorak / Rusalka [Chalabala] 01
Used drive : TSSTcorpCDDVDW TS-L632N Adapter: 0 ID: 0
Read mode : Secure
Utilize accurate stream : Yes
Defeat audio cache : Yes
Make use of C2 pointers : No
Read offset correction : 6
Overread into Lead-In and Lead-Out : No
Fill up missing offset samples with silence : Yes
Delete leading and trailing silent blocks : No
Null samples used in CRC calculations : Yes
Used interface : Native Win32 interface for Win NT & 2000
Used output format : Internal WAV Routines
Sample format : 44.100 Hz; 16 Bit; Stereo
TOC of the extracted CD
Track | Start | Length | Start sector | End sector
---------------------------------------------------------
1 | 0:00.32 | 4:04.00 | 32 | 18331
2 | 4:04.32 | 8:23.25 | 18332 | 56081
3 | 12:27.57 | 3:58.53 | 56082 | 73984
4 | 16:26.35 | 4:51.10 | 73985 | 95819
5 | 21:17.45 | 8:05.05 | 95820 | 132199
6 | 29:22.50 | 9:07.52 | 132200 | 173276
7 | 38:30.27 | 4:43.50 | 173277 | 194551
8 | 43:14.02 | 2:22.68 | 194552 | 205269
9 | 45:36.70 | 5:59.15 | 205270 | 232209
10 | 51:36.10 | 2:10.72 | 232210 | 242031
11 | 53:47.07 | 8:19.53 | 242032 | 279509
12 | 62:06.60 | 9:36.47 | 279510 | 322756
13 | 71:43.32 | 5:13.00 | 322757 | 346231
Range status and errors
Selected range
Filename H:\_APE\_Own\Dvorak - Rusalka [Chalabala]\Dvorak - Rusalka [Chalabala] 01.wav
Peak level 92.9 %
Range quality 100.0 %
Copy CRC 554A5072
Copy OK
No errors occurred
AccurateRip summary
Track 1 cannot be verified as accurate (confidence 2) [EB8E4035], AccurateRip returned [7CEB36D9]
Track 2 cannot be verified as accurate (confidence 2) [2E19D6C0], AccurateRip returned [ED83BD23]
Track 3 cannot be verified as accurate (confidence 2) [04FB24AA], AccurateRip returned [1AD586BB]
Track 4 cannot be verified as accurate (confidence 2) [3266780E], AccurateRip returned [21B7BAEF]
Track 5 cannot be verified as accurate (confidence 2) [53A1FA09], AccurateRip returned [662D0A93]
Track 6 cannot be verified as accurate (confidence 2) [5D28BE61], AccurateRip returned [654736FB]
Track 7 cannot be verified as accurate (confidence 2) [4ECA1959], AccurateRip returned [DDB62657]
Track 8 cannot be verified as accurate (confidence 2) [742B59B7], AccurateRip returned [8B9DC979]
Track 9 cannot be verified as accurate (confidence 2) [CE732C31], AccurateRip returned [491FD3CC]
Track 10 cannot be verified as accurate (confidence 2) [FA00D79D], AccurateRip returned [29C9E3D9]
Track 11 cannot be verified as accurate (confidence 2) [694B1D26], AccurateRip returned [0C89FEBD]
Track 12 cannot be verified as accurate (confidence 2) [54CDE7A1], AccurateRip returned [7AFE5E14]
Track 13 cannot be verified as accurate (confidence 2) [3A848AEE], AccurateRip returned [6ACAFFA3]
No tracks could be verified as accurate
You may have a different pressing from the one(s) in the database
End of status report

Лог создания рипа CD2

Exact Audio Copy V0.99 prebeta 5 from 4. May 2009
EAC extraction logfile from 16. April 2010, 0:01
Dvorak / Rusalka [Chalabala] 02
Used drive : TSSTcorpCDDVDW TS-L632N Adapter: 0 ID: 0
Read mode : Secure
Utilize accurate stream : Yes
Defeat audio cache : Yes
Make use of C2 pointers : No
Read offset correction : 6
Overread into Lead-In and Lead-Out : No
Fill up missing offset samples with silence : Yes
Delete leading and trailing silent blocks : No
Null samples used in CRC calculations : Yes
Used interface : Native Win32 interface for Win NT & 2000
Used output format : Internal WAV Routines
Sample format : 44.100 Hz; 16 Bit; Stereo
TOC of the extracted CD
Track | Start | Length | Start sector | End sector
---------------------------------------------------------
1 | 0:00.32 | 4:35.23 | 32 | 20679
2 | 4:35.55 | 3:26.22 | 20680 | 36151
3 | 8:02.02 | 6:15.00 | 36152 | 64276
4 | 14:17.02 | 6:09.05 | 64277 | 91956
5 | 20:26.07 | 7:21.65 | 91957 | 125096
6 | 27:47.72 | 5:44.35 | 125097 | 150931
7 | 33:32.32 | 4:20.50 | 150932 | 170481
8 | 37:53.07 | 6:37.25 | 170482 | 200281
9 | 44:30.32 | 8:43.25 | 200282 | 239531
10 | 53:13.57 | 4:38.40 | 239532 | 260421
11 | 57:52.22 | 14:06.10 | 260422 | 323881
Range status and errors
Selected range
Filename H:\_APE\_Own\Dvorak - Rusalka [Chalabala]\Dvorak - Rusalka [Chalabala] 02.wav
Peak level 87.6 %
Range quality 100.0 %
Copy CRC 6AC96C8F
Copy OK
No errors occurred
AccurateRip summary
Track 1 cannot be verified as accurate (confidence 2) [930E2122], AccurateRip returned [EA5DF1E1]
Track 2 cannot be verified as accurate (confidence 2) [D7FFB48C], AccurateRip returned [DD0F7BB0]
Track 3 cannot be verified as accurate (confidence 2) [F94E9F68], AccurateRip returned [BFE42A1E]
Track 4 cannot be verified as accurate (confidence 2) [715C0230], AccurateRip returned [0AC1A053]
Track 5 cannot be verified as accurate (confidence 2) [2B2C3B99], AccurateRip returned [867972B9]
Track 6 cannot be verified as accurate (confidence 2) [4BFBD11D], AccurateRip returned [D5635343]
Track 7 cannot be verified as accurate (confidence 2) [2C25B831], AccurateRip returned [44063AFB]
Track 8 cannot be verified as accurate (confidence 2) [2A2C9A3F], AccurateRip returned [994151DF]
Track 9 cannot be verified as accurate (confidence 2) [AE8D9AA3], AccurateRip returned [87BD057C]
Track 10 cannot be verified as accurate (confidence 2) [E1C1DB1B], AccurateRip returned [ED81E266]
Track 11 cannot be verified as accurate (confidence 2) [8700B4C1], AccurateRip returned [796A1466]
No tracks could be verified as accurate
You may have a different pressing from the one(s) in the database
End of status report

Лог проверки качества

AUDIOCHECKER v2.0 beta (build 457) - by Dester - opdester@freemail.hu~~~~~~~~~~~~~~~~~~~~~~~~~~~~~~~~~~-=== DO NOT EDIT THIS FILE! ===-
Path: ...\Dvorak - Rusalka [Chalabala]
1 -=- Dvorak - Rusalka [Chalabala] 01.ape -=- CDDA (100%)2 -=- Dvorak - Rusalka [Chalabala] 02.ape -=- CDDA (100%)
Summary 100,00% CDDA
87497124
Доп. информация: Recording:
15 November to 2 December 1961, Domovina Studio, Prague

_________________
Other forum [Profile] [PM]
Display posts from previous:    
Reply to topic

The time now is: Today 11:20

All times are GMT + 3 Hours



You cannot post new topics in this forum
You cannot reply to topics in this forum
You cannot edit your posts in this forum
You cannot delete your posts in this forum
You cannot vote in polls in this forum
You cannot attach files in this forum
You cannot download files in this forum