Today is a free download without charge Download

(Progressive House, House, Deep House) VA - Never Say Never: Mixed by Sasha (Mixmag [Mixmag 12/11]) - 2011, FLAC (tracks+.cue), lossless

Reply to topic
 
Author
Message

BiteFly ®

Gender:

Longevity: 8 years 10 months

Posts: 2138

Location: Germany-Russia

Торрент-статистика

Post 07-Dec-2011 01:19

[Quote]

Various Artists - Never Say Never: Mixed by Sasha- Жанр: Progressive House, House, Deep House
Страна-производитель диска: UK
Год издания диска: 2011
Издатель (лейбл): Mixmag
Номер по каталогу: Mixmag 12/11
Аудиокодек: FLAC (*.flac)
Тип рипа: tracks+.cue
Битрейт аудио: lossless
Продолжительность: 01:09:26
Источник (релизер): what.cd
Наличие сканов в содержимом раздачи: нет
Треклист:
01. Sasha - Ushuaia Flight Path (03:02)
02. Todd Terje - Snooze 4 Love (Version/Original) (06:01)
03. Maceo Plex - Can't Leave You (07:05)
04. Smash TV - Steroids To Heaven (05:16)
05. Tahloula - We Play House (M.A.N.D.Y.'s Sweatbox Remix) (04:44)
06. Mario & Vidis Featuring Ernesto - Changed (Soul Clap Remix) (07:27)
07. Todd Terje - Ragysh (02:15)
08. Scuba - Adrenalin (04:47)
09. Rik Woldring - Disco Pussy (Shaun Reeves & Tale Of Us Remix) (05:26)
10. Paul Kalkbrenner - Gutes Nitzwerk (07:39)
11. Rone - So So So (04:49)
12. Scuba - Never (08:50)
13. Sasha - Ushuaia Flight Path (02:05)--

Лог создания рипа

Код:
Exact Audio Copy V1.0 beta 3 from 29. August 2011
EAC extraction logfile from 22. November 2011, 2:55
Sasha / Never Say Never
Used drive  : SONY    DVD RW AW-G540A   Adapter: 0  ID: 0
Read mode               : Secure
Utilize accurate stream : Yes
Defeat audio cache      : Yes
Make use of C2 pointers : No
Read offset correction                      : 48
Overread into Lead-In and Lead-Out          : No
Fill up missing offset samples with silence : Yes
Delete leading and trailing silent blocks   : No
Null samples used in CRC calculations       : Yes
Used interface                              : Native Win32 interface for Win NT & 2000
Gap handling                                : Appended to previous track
Used output format              : User Defined Encoder
Selected bitrate                : 1024 kBit/s
Quality                         : High
Add ID3 tag                     : No
Command line compressor         : C:\Program Files\Exact Audio Copy\Flac\flac.exe
Additional command line options : -8 -V -T "ARTIST=%artist%" -T "TITLE=%title%" -T "ALBUM=%albumtitle%" -T "DATE=%year%" -T "TRACKNUMBER=%tracknr%" -T "GENRE=%genre%" -T "PERFORMER=%albuminterpret%" -T "COMPOSER=%composer%" %haslyrics%--tag-from-file=LYRICS="%lyricsfile%"%haslyrics% -T "ALBUMARTIST=%albumartist%" -T "DISCNUMBER=%cdnumber%" -T "TOTALDISCS=%totalcds%" -T "TOTALTRACKS=%numtracks%" -T "COMMENT=%comment%" %source% -o %dest%
TOC of the extracted CD
     Track |   Start  |  Length  | Start sector | End sector
    ---------------------------------------------------------
        1  |  0:00.00 |  3:01.41 |         0    |    13615
        2  |  3:01.41 |  6:01.03 |     13616    |    40693
        3  |  9:02.44 |  7:05.01 |     40694    |    72569
        4  | 16:07.45 |  5:16.26 |     72570    |    96295
        5  | 21:23.71 |  4:44.03 |     96296    |   117598
        6  | 26:07.74 |  7:27.06 |    117599    |   151129
        7  | 33:35.05 |  2:14.64 |    151130    |   161243
        8  | 35:49.69 |  4:47.35 |    161244    |   182803
        9  | 40:37.29 |  5:25.53 |    182804    |   207231
       10  | 46:03.07 |  7:39.25 |    207232    |   241681
       11  | 53:42.32 |  4:48.50 |    241682    |   263331
       12  | 58:31.07 |  8:50.27 |    263332    |   303108
       13  | 67:21.34 |  2:04.64 |    303109    |   312472
Track  1
     Filename H:\EACRips\Mixmag Pres. Sahsa - Never Say Never (2011) [FLAC]\01 - Sasha - Ushuaia Flight Path.wav
     Pre-gap length  0:00:02.00
     Peak level 52.8 %
     Extraction speed 2.6 X
     Track quality 100.0 %
     Test CRC 44DF61C1
     Copy CRC 44DF61C1
     Track not present in AccurateRip database
     Copy OK
Track  2
     Filename H:\EACRips\Mixmag Pres. Sahsa - Never Say Never (2011) [FLAC]\02 - Todd Terje - Snooze 4 Love (Version,Original).wav
     Peak level 98.8 %
     Extraction speed 3.3 X
     Track quality 100.0 %
     Test CRC B212E647
     Copy CRC B212E647
     Track not present in AccurateRip database
     Copy OK
Track  3
     Filename H:\EACRips\Mixmag Pres. Sahsa - Never Say Never (2011) [FLAC]\03 - Maceo Plex - Can't Leave You.wav
     Peak level 98.8 %
     Extraction speed 3.8 X
     Track quality 100.0 %
     Test CRC 9C148BDF
     Copy CRC 9C148BDF
     Track not present in AccurateRip database
     Copy OK
Track  4
     Filename H:\EACRips\Mixmag Pres. Sahsa - Never Say Never (2011) [FLAC]\04 - Smash TV - Steroids To Heaven.wav
     Peak level 98.8 %
     Extraction speed 4.0 X
     Track quality 100.0 %
     Test CRC 7B9FC751
     Copy CRC 7B9FC751
     Track not present in AccurateRip database
     Copy OK
Track  5
     Filename H:\EACRips\Mixmag Pres. Sahsa - Never Say Never (2011) [FLAC]\05 - Tahloula - We Play House (M.A.N.D.Y.'s Sweatbox Remix).wav
     Peak level 98.8 %
     Extraction speed 4.2 X
     Track quality 100.0 %
     Test CRC C2BF84C3
     Copy CRC C2BF84C3
     Track not present in AccurateRip database
     Copy OK
Track  6
     Filename H:\EACRips\Mixmag Pres. Sahsa - Never Say Never (2011) [FLAC]\06 - Mario & Vidis Featuring Ernesto - Changed (Soul Clap Remix).wav
     Peak level 98.8 %
     Extraction speed 4.7 X
     Track quality 100.0 %
     Test CRC 48AC9C9C
     Copy CRC 48AC9C9C
     Track not present in AccurateRip database
     Copy OK
Track  7
     Filename H:\EACRips\Mixmag Pres. Sahsa - Never Say Never (2011) [FLAC]\07 - Todd Terje - Ragysh.wav
     Peak level 98.8 %
     Extraction speed 4.2 X
     Track quality 100.0 %
     Test CRC D2E32D0D
     Copy CRC D2E32D0D
     Track not present in AccurateRip database
     Copy OK
Track  8
     Filename H:\EACRips\Mixmag Pres. Sahsa - Never Say Never (2011) [FLAC]\08 - Scuba - Adrenalin.wav
     Peak level 98.8 %
     Extraction speed 4.0 X
     Track quality 99.9 %
     Test CRC D040E7D9
     Copy CRC D040E7D9
     Track not present in AccurateRip database
     Copy OK
Track  9
     Filename H:\EACRips\Mixmag Pres. Sahsa - Never Say Never (2011) [FLAC]\09 - Rik Woldring - Disco Pussy (Shaun Reeves & Tale Of Us Remix).wav
     Peak level 98.8 %
     Extraction speed 4.4 X
     Track quality 99.9 %
     Test CRC 6BFD60E6
     Copy CRC 6BFD60E6
     Track not present in AccurateRip database
     Copy OK
Track 10
     Filename H:\EACRips\Mixmag Pres. Sahsa - Never Say Never (2011) [FLAC]\10 - Paul Kalkbrenner - Paul Kalkbrenner – Gutes Nitzwerk.wav
     Peak level 98.8 %
     Extraction speed 5.6 X
     Track quality 100.0 %
     Test CRC 3DBC6F1F
     Copy CRC 3DBC6F1F
     Track not present in AccurateRip database
     Copy OK
Track 11
     Filename H:\EACRips\Mixmag Pres. Sahsa - Never Say Never (2011) [FLAC]\11 - Rone - So So So.wav
     Peak level 98.8 %
     Extraction speed 5.6 X
     Track quality 100.0 %
     Test CRC D6E32726
     Copy CRC D6E32726
     Track not present in AccurateRip database
     Copy OK
Track 12
     Filename H:\EACRips\Mixmag Pres. Sahsa - Never Say Never (2011) [FLAC]\12 - Scuba - Never.wav
     Peak level 98.8 %
     Extraction speed 6.1 X
     Track quality 100.0 %
     Test CRC 18B3651D
     Copy CRC 18B3651D
     Track not present in AccurateRip database
     Copy OK
Track 13
     Filename H:\EACRips\Mixmag Pres. Sahsa - Never Say Never (2011) [FLAC]\13 - Sasha - Ushuaia Flight Path.wav
     Peak level 81.4 %
     Extraction speed 3.6 X
     Track quality 99.9 %
     Test CRC 7F757FCB
     Copy CRC 7F757FCB
     Track not present in AccurateRip database
     Copy OK
None of the tracks are present in the AccurateRip database
No errors occurred
End of status report
---- CUETools DB Plugin V2.1.3
[CTDB TOCID: 46WnZELDsiRzswkchgIyFHMQF5w-] found, Submit result: already submitted
[82078e7c] (2/2) Accurately ripped
==== Log checksum 67F02F7B1DC48B92560502DD6D91AEDCC8D8DB27A857C0824E09C45C63CBEDF9 ====

Содержание индексной карты (.CUE)

Код:
REM GENRE House
REM DATE 2011
REM DISCID B310460D
REM COMMENT "ExactAudioCopy v1.0b3"
PERFORMER "Sasha"
TITLE "Never Say Never"
FILE "01 - Sasha - Ushuaia Flight Path.wav" WAVE
  TRACK 01 AUDIO
    TITLE "Ushuaia Flight Path"
    PERFORMER "Sasha"
    ISRC 000000000000
    INDEX 01 00:00:00
FILE "02 - Todd Terje - Snooze 4 Love (Version,Original).wav" WAVE
  TRACK 02 AUDIO
    TITLE "Snooze 4 Love (Version/Original)"
    PERFORMER "Todd Terje"
    ISRC 000000000000
    INDEX 01 00:00:00
FILE "03 - Maceo Plex - Can't Leave You.wav" WAVE
  TRACK 03 AUDIO
    TITLE "Can't Leave You"
    PERFORMER "Maceo Plex"
    ISRC 000000000000
    INDEX 01 00:00:00
FILE "04 - Smash TV - Steroids To Heaven.wav" WAVE
  TRACK 04 AUDIO
    TITLE "Steroids To Heaven"
    PERFORMER "Smash TV"
    ISRC 000000000000
    INDEX 01 00:00:00
FILE "05 - Tahloula - We Play House (M.A.N.D.Y.'s Sweatbox Remix).wav" WAVE
  TRACK 05 AUDIO
    TITLE "We Play House (M.A.N.D.Y.'s Sweatbox Remix)"
    PERFORMER "Tahloula"
    ISRC 000000000000
    INDEX 01 00:00:00
FILE "06 - Mario & Vidis Featuring Ernesto - Changed (Soul Clap Remix).wav" WAVE
  TRACK 06 AUDIO
    TITLE "Changed (Soul Clap Remix)"
    PERFORMER "Mario & Vidis Featuring Ernesto"
    ISRC 000000000000
    INDEX 01 00:00:00
FILE "07 - Todd Terje - Ragysh.wav" WAVE
  TRACK 07 AUDIO
    TITLE "Ragysh"
    PERFORMER "Todd Terje"
    ISRC 000000000000
    INDEX 01 00:00:00
FILE "08 - Scuba - Adrenalin.wav" WAVE
  TRACK 08 AUDIO
    TITLE "Adrenalin"
    PERFORMER "Scuba"
    ISRC 000000000000
    INDEX 01 00:00:00
FILE "09 - Rik Woldring - Disco Pussy (Shaun Reeves & Tale Of Us Remix).wav" WAVE
  TRACK 09 AUDIO
    TITLE "Disco Pussy (Shaun Reeves & Tale Of Us Remix)"
    PERFORMER "Rik Woldring"
    ISRC 000000000000
    INDEX 01 00:00:00
FILE "10 - Paul Kalkbrenner - Paul Kalkbrenner – Gutes Nitzwerk.wav" WAVE
  TRACK 10 AUDIO
    TITLE "Paul Kalkbrenner – Gutes Nitzwerk"
    PERFORMER "Paul Kalkbrenner "
    ISRC 000000000000
    INDEX 01 00:00:00
FILE "11 - Rone - So So So.wav" WAVE
  TRACK 11 AUDIO
    TITLE "So So So"
    PERFORMER "Rone"
    ISRC 000000000000
    INDEX 01 00:00:00
FILE "12 - Scuba - Never.wav" WAVE
  TRACK 12 AUDIO
    TITLE "Never"
    PERFORMER "Scuba"
    ISRC 000000000000
    INDEX 01 00:00:00
FILE "13 - Sasha - Ushuaia Flight Path.wav" WAVE
  TRACK 13 AUDIO
    TITLE "Ushuaia Flight Path"
    PERFORMER "Sasha"
    ISRC 000000000000
    INDEX 01 00:00:00

_________________
Other forum [Profile] [PM]
Similar theme
Forum Topic Author Torrent Replies Last Post
./templates/default/images/folder_dl.gif Rock (Progressive rock) [CD] Emerson Lake & Palmer: Pictures At An Exhibition, 1971 (японский ремастер 1999), FLAC (tracks+.cue), lossless Omen
0 | 1

0 | 670

0

2014-02-04 23:00
Omen Latest
./templates/default/images/folder_dl.gif Metal (Progressive Thrash Metal) Mekong Delta - Дискография 19 CD, (обновление 23-02-14), FLAC (image + .cue), lossless Omen
0 | 1

0 | 583

0

2014-02-23 11:00
Omen Latest
./templates/default/images/folder_dl.gif Rock (Progressive Rock, Symphonic Rock) [CD] Emerson Lake & Palmer - 3 Albums Mini LP PT-SHM K2HD 1970-71 (Victor Japan 2014), FLAC (image+.cue), lossless Omen
0 | 1

0 | 629

0

2014-05-23 17:33
Omen Latest
./templates/default/images/folder_dl.gif Rock (Progressive Rock) [CD] Jethro Tull - War Child (40th Anniversary Theatre Edition) (2CD) - 2014, FLAC (tracks+.cue), lossless Omen
1 | 0

0 | 970

11

2014-11-30 14:03
Omen Latest
./templates/default/images/folder_dl.gif Rock (Progressive Rock) [CD] Sky - Sky - 2014 (1979), FLAC (image+.cue), lossless Omen
1 | 0

0 | 609

0

2014-12-27 02:00
Omen Latest
./templates/default/images/folder_dl.gif Rock (Progressive & Art-Rock) Emerson, Lake & Palmer (ELP) - Дискография. The Discography (9 Studio, 15 Live, 4 Compilation, 3 Collaboration, 3 Box Set, 38 issues, 60CD) - 1970-2014, FLAC (image+.cue), lossless Omen
0 | 1

0 | 515

1

2015-01-02 18:00
Omen Latest
./templates/default/images/folder_dl.gif Rock (Progressive Rock) [CD] Sky - Sky3 (2015, CD+DVD, Esoteric Recordigs, EU, UK, ECLEC 22475) - 1981, FLAC (image+.cue), lossless Omen
0 | 1

0 | 496

0

2015-03-20 09:00
Omen Latest
./templates/default/images/folder_dl.gif Metal (Progressive Metal) Leprous - The Congregation - 2015, MP3, 320 kbps Omen
2 | 0

0 | 3148

21

2015-05-21 00:05
Omen Latest
./templates/default/images/folder_dl.gif Rock (Progressive Rock) [CD] Sky - Mozart (2015, Esoteric Recordigs, EU, UK, ELEC 2487) - 1987, FLAC (image+.cue), lossless Omen
1 | 0

0 | 637

0

2015-05-31 21:00
Omen Latest
./templates/default/images/folder_dl.gif Rock (Progressive Rock, Experimental) Frank Zappa - Dance Me This - 2015, MP3, 320 kbps Omen
1 | 0

0 | 1964

19

2015-06-24 21:00
Omen Latest
Display posts from previous:    
Reply to topic

The time now is: Today 06:18

All times are GMT + 3 Hours



You cannot post new topics in this forum
You cannot reply to topics in this forum
You cannot edit your posts in this forum
You cannot delete your posts in this forum
You cannot vote in polls in this forum
You cannot attach files in this forum
You cannot download files in this forum