Today is a free download without charge Download

Олимпийские игры 2014. Наши медали (2014.02.23) SATRip [H.264]

Reply to topic
 
Author
Message

Varius ®

Gender:

Longevity: 9 years 8 months

Posts: 2418

Location: Hell

Торрент-статистика

Post 26-Feb-2014 22:21

[Quote]

Олимпийские игры 2014. Наши медали (2014.02.23) SATRip [H.264] - Режиссер / Телекомпания: Россия
Русское название: Олимпийские игры 2014. Наше Золото
Год выпуска: 2014
Жанр: Спорт
Выпущено: Россия
Описание:
Самые яркие моменты XXII зимних Олимпийских игр в Сочи с участием наших спортсменов. Нарезка золотых выступлений.
Продолжительность: 01:46:40
Видеокодек: AVC(MPEG-TS)
Качество видео: SATRip
Битрейт видео: ~1372 kb/s
Размер кадра: 720 x 576
Аудиокодек: MP3, 2.0ch.
Битрейт аудио: 128 kb/s

MediaInfo:

Формат : MPEG-TS
Размер файла : 1,22 Гбайт
Продолжительность : 1 ч. 46 м.
Общий поток : 1643 Кбит/сек
Видео
Идентификатор : 256 (0x100)
Идентификатор меню : 1 (0x1)
Формат : AVC
Формат/Информация : Advanced Video Codec
Профиль формата : [url=mailto:High@L3.0]High@L3.0[/url]
Параметр CABAC формата : Да
Параметр ReFrames формата : 4 кадра
Идентификатор кодека : 27
Продолжительность : 1 ч. 46 м.
Битрейт : 1372 Кбит/сек
Ширина : 720 пикселей
Высота : 576 пикселей
Соотношение сторон : 4:3
Частота кадров : 25,000 кадров/сек
Стандарт вещания : PAL
Цветовое пространство : YUV
Субдискретизация насыщенности : 4:2:0
Битовая глубина : 8 бит
Тип развёртки : Прогрессивная
Бит/(Пиксели*Кадры) : 0.132
Размер потока : 1,07 Гбайт (87%)
Библиотека кодирования : x264 core 124 r2197 69a0443
Настройки программы : cabac=1 / ref=1 / deblock=1:-1:-1 / analyse=0x3:0x13 / me=dia / subme=1 / psy=1 / psy_rd=1.00:0.15 / mixed_ref=0 / me_range=16 / chroma_me=1 / trellis=0 / 8x8dct=1 / cqm=0 / deadzone=21,11 / fast_pskip=1 / chroma_qp_offset=0 / threads=8 / sliced_threads=0 / nr=0 / decimate=1 / interlaced=0 / bluray_compat=0 / constrained_intra=0 / bframes=3 / b_pyramid=2 / b_adapt=1 / b_bias=0 / direct=1 / weightb=1 / open_gop=0 / weightp=1 / keyint=60 / keyint_min=6 / scenecut=40 / intra_refresh=0 / rc_lookahead=0 / rc=cbr / mbtree=0 / bitrate=1372 / ratetol=1.0 / qcomp=0.60 / qpmin=10 / qpmax=51 / qpstep=4 / vbv_maxrate=1372 / vbv_bufsize=1500 / nal_hrd=none / ip_ratio=1.40 / pb_ratio=1.30 / aq=1:1.00
Аудио
Идентификатор : 257 (0x101)
Идентификатор меню : 1 (0x1)
Формат : MPEG Audio
Версия формата : Version 1
Профиль формата : Layer 3
Режим : Joint stereo
Расширение режима : MS Stereo
Идентификатор кодека : 3
Продолжительность : 1 ч. 46 м.
Вид битрейта : Постоянный
Битрейт : 128 Кбит/сек
Каналы : 2 канала
Частота : 44,1 КГц
Метод сжатия : С потерями
Задержка видео : 6 мс.
Размер потока : 97,6 Мбайт (8%)
Меню
Идентификатор : 4096 (0x1000)
Идентификатор меню : 1 (0x1)
Продолжительность : 1 ч. 46 м.
Список : 256 (0x100) (AVC) / 257 (0x101) (MPEG Audio)
Название сервиса : Service01
Поставщик сервиса : FFmpeg
Тип сервиса : digital television
Скриншоты:                    

_________________

Создавая "Новую папку", не считайте себя Создателем - это право Вам дано Админом


Other forum [Profile] [PM]
Similar theme
Forum Topic Author Torrent Replies Last Post
./templates/default/images/folder_dl.gif Спортивные симуляторы Зимние Олимпийские Игры. Турин 2006 (Акелла) (2006) (RUS) [L] Diavol
0 | 1

0 | 1394

2

2012-07-15 12:33
Diavol Latest
Display posts from previous:    
Reply to topic

The time now is: Today 16:41

All times are GMT + 3 Hours



You cannot post new topics in this forum
You cannot reply to topics in this forum
You cannot edit your posts in this forum
You cannot delete your posts in this forum
You cannot vote in polls in this forum
You cannot attach files in this forum
You cannot download files in this forum