Today is a free download without charge Download

Стражи Галактики в 3Д / Guardians of the Galaxy 3D (Джеймс Ганн / James Gunn) [2014, Приключенческий экшн, BDrip-avc] Half OverUnder / Вертикальная анаморфная стереопара

Reply to topic
 
Author
Message

Omen ®

Longevity: 7 years 1 month

Posts: 181090

Торрент-статистика

Post 26-Feb-2014 11:51

[Quote]

Стражи Галактики / Guardians of the Galaxy / Трейлер 3D
Год выпуска: 2014
Страна: США
Студия: Marvel
Жанр: Приключенческий экшн
Продолжительность: 00:02:26
Перевод: Профессиональный (дублированный)
Русские субтитры: нет
Режиссер на русском: Джеймс Ганн
Режиссер на английском: James Gunn
В ролях: Крис Пратт, Зои Салдана, Дэйв Батиста, Вин Дизель (голос Грута), Брэдли Купер (голос Енота Ракеты), Ли Пэйс, Майкл Рукер, Карен Гиллан, Джимон Хонсу, а также Джон Си Райли, Гленн Клоуз и Бенисио Дель Торо
Описание: Студия MARVEL, подарившая зрителям блокбастер «Мстители» и популярные франшизы о Железном человеке, Торе, Черной Вдове и Капитане Америка, представляет новую команду супергероев, известных как Стражи Галактики.
Киновселенная MARVEL расширяется: в новом фантастическом приключении к отважному путешественнику Питеру Квиллу в руки попадает таинственный артефакт, принадлежащий могущественному и безжалостному злодею Ронану, строящему коварные планы по захвату Вселенной. Питер оказывается в центре межгалактической охоты, где жертва – он сам.
Единственный способ спасти свою жизнь – объединиться с четверкой нелюдимых изгоев: воинственным енотом по кличке Ракета, человекоподобным деревом Грутом, смертельно опасной Гаморой и одержимым жаждой мести Драксом, также известным как Разрушитель. Когда Квилл понимает, какой силой обладает украденный артефакт и какую опасность он представляет для вселенной, одиночка пойдет на все, чтобы сплотить случайных союзников для решающей битвы за судьбу галактики.
Качество: BDrip
Контейнер: MKV
Формат 3D: Half OverUnder / Вертикальная анаморфная стереопара
Порядок ракурсов: левый ракурс первый
Видео кодек: x264
Аудио кодек: AC3
Видео: MPEG4 Video (H264),1920х1080,24fps,49.6 Мбит/сек
Аудио: Rus, AC3 48000Hz 6ch

MediaInfo

General
Unique ID : 213075978453022676596305528355615581167 (0xA04CF0D3E493061884F422862296A3EF)
Complete name : D:\GuardiansoftheGalaxy.mkv
Format : Matroska
Format version : Version 4 / Version 2
File size : 875 MiB
Duration : 2mn 27s
Overall bit rate mode : Variable
Overall bit rate : 49.6 Mbps
Encoded date : UTC 2014-02-24 19:04:28
Writing application : mkvmerge v6.7.0 ('Back to the Ground') 64bit built on Jan 8 2014 15:10:52
Writing library : libebml v1.3.0 + libmatroska v1.4.1
Video
ID : 2
Format : AVC
Format/Info : Advanced Video Codec
Format profile : High@L5.1
Format settings, CABAC : Yes
Format settings, ReFrames : 4 frames
Format settings, GOP : M=3, N=15
Codec ID : V_MPEG4/ISO/AVC
Duration : 2mn 27s
Bit rate mode : Variable
Bit rate : 48.2 Mbps
Maximum bit rate : 240 Mbps
Width : 1 920 pixels
Height : 1 080 pixels
Display aspect ratio : 16:9
Frame rate mode : Constant
Frame rate : 24.000 fps
Standard : NTSC
Color space : YUV
Chroma subsampling : 4:2:0
Bit depth : 8 bits
Scan type : Progressive
Bits/(Pixel*Frame) : 0.969
Stream size : 850 MiB (97%)
Language : Russian
Default : Yes
Forced : No
Color primaries : BT.709
Transfer characteristics : BT.709
Matrix coefficients : BT.709
Audio
ID : 1
Format : AC-3
Format/Info : Audio Coding 3
Mode extension : CM (complete main)
Format settings, Endianness : Big
Codec ID : A_AC3
Duration : 2mn 27s
Bit rate mode : Constant
Bit rate : 448 Kbps
Channel(s) : 6 channels
Channel positions : Front: L C R, Side: L R, LFE
Sampling rate : 48.0 KHz
Bit depth : 16 bits
Compression mode : Lossy
Stream size : 7.90 MiB (1%)
Language : Russian
Default : Yes
Forced : No

Скриншоты



Other forum [Profile] [PM]

bazooka_76

Gender:

Longevity: 5 years 10 months

Posts: 8

Торрент-статистика

Post 12-Mar-2014 14:26 (after 14 days)

[Quote]

Спасибо буду ждать фильм очень этот жанр нравится

_________________
Other forum [Profile] [PM]
Display posts from previous:    
Reply to topic

The time now is: Today 10:58

All times are GMT + 3 Hours



You cannot post new topics in this forum
You cannot reply to topics in this forum
You cannot edit your posts in this forum
You cannot delete your posts in this forum
You cannot vote in polls in this forum
You cannot attach files in this forum
You cannot download files in this forum