Сегодня идет свободное скачивание без начисления Download

Друзья / Friends / Сезон 5 / Серии 1-24 из 24 (Дэвид Крэйн / David Crane, Марта Кауффман / Marta Kauffman) [1998-1999, США, мелодрама, комедия, BDRip-AVC] MVO (РТР) + Original + Sub (Rus, Eng)

Ответить на тему
 
Автор
Сообщение

Omen ®

Стаж: 5 лет 10 месяцев

Сообщений: 184329

Торрент-статистика

Пост 25-Фев-2014 20:01

[Цитировать]

--Друзья / Friends«Everybody needs Friends!»-- -- Страна: США
Жанр: мелодрама, комедия
Год выхода: 1998-1999
Продолжительность: 24 x 22 мин.
Перевод: профессиональный (многоголосый, закадровый) (РТР)
Субтитры: русские, английские (SDH)
Оригинальная аудиодорожка: английская
Режиссер: Дэвид Крэйн, Марта Кауффман
В ролях: Дженнифер Энистон, Кортни Кокс, Лиза Кудроу, Мэтт ЛеБлан, Мэттью Перри, Дэвид Швиммер
О фильме: Главные герои — шестеро друзей — Рейчел, Моника, Фиби, Джоуи, Чендлер и Росс. Три девушки и три парня, которые дружат, живут по соседству, вместе убивают время и противостоят жестокой реальности, делятся своими секретами и иногда очень сильно влюбляются.

Релиз от -
Автор: Gellard
Сэмпл: скачать
Качество: BDRip-AVC (источник: HDCLUB / Blu-Ray Disc / 1080p)
Формат: MKV
Видео: 1024x576 (16:9), 23.976 fps, x264, ~2200 kbps avg, 0.156 bit/pixel
Аудио #1: (MVO) 48 kHz, AC3 Dolby Digital, 2/0 (L,R) ch, 256.00 kbps avg
Аудио #2: (ENG) 48 kHz, AC3 Dolby Digital, 3/2 (L,C,R,l,r) + LFE ch, 384.00 kbps avg
Размер: ~450 Mb-
-

Скриншоты

Список серий

  • Friends S05E01: Эпизод после того, как Росс назвал имя Рэйчел / The One After Ross Says Rachel (1998)
  • Friends S05E02: Эпизод, где все целуются / The One with All the Kissing (1998)
  • Friends S05E03: Эпизод с тройней (Эпизод сотый) / The One Hundredth (1998)
  • Friends S05E04: Эпизод, где Фиби ненавидит канал PBS / The One Where Phoebe Hates PBS (1998)
  • Friends S05E05: Эпизод со старым соседом Кипом / The One with the Kips (1998)
  • Friends S05E06: Эпизод с чудовищем Йети / The One with the Yeti (1998)
  • Friends S05E07: Эпизод, где Росс въезжает / The One Where Ross Moves In (1998)
  • Friends S05E08: Эпизод, где все вспоминают свои Дни благодарения / The One with the Thanksgiving Flashbacks (1998)
  • Friends S05E09: Эпизод с сэндвичем Росса / The One with Ross's Sandwich (1998)
  • Friends S05E10: Эпизод с сестрёнкой Дэни / The One with the Inappropriate Sister (1998)
  • Friends S05E11: Эпизод, где все дают обещания / The One with All the Resolutions (1999)
  • Friends S05E12: Эпизод с рабочим смехом Чендлера / The One with Chandler's Work Laugh (1999)
  • Friends S05E13: Эпизод с новой сумкой Джо / The One with Joey's Bag (1999)
  • Friends S05E14: Эпизод, где все всё узнают / The One Where Everybody Finds Out (1999)
  • Friends S05E15: Эпизод с драчливой подругой Джо / The One with the Girl Who Hits Joey (1999)
  • Friends S05E16: Эпизод с полицейским / The One with the Cop (1999)
  • Friends S05E17: Эпизод со случайным поцелуем / The One with Rachel's Inadvertent Kiss (1999)
  • Friends S05E18: Эпизод, где Рэйчел курит / The One Where Rachel Smokes (1999)
  • Friends S05E19: Эпизод, где Росс не умеет флиртовать / The One Where Ross Can't Flirt (1999)
  • Friends S05E20: Эпизод, где парни едут в полицейский рейд / The One with the Ride Along (1999)
  • Friends S05E21: Эпизод с игрой в мяч / The One with the Ball (1999)
  • Friends S05E22: Эпизод, где Джо обиделся на Чендлера / The One with Joey's Big Break (1999)
  • Friends S05E23: Эпизод в Вегасе, часть 1 / The One in Vegas: Part 1 (1999)
  • Friends S05E24: Эпизод в Вегасе, часть 2 / The One in Vegas: Part 2 (1999)

Media Info

Код:
Complete name                            : Friends.S05E01.The.One.After.Ross.Says.Rachel.mkv
Format                                   : Matroska
Format version                           : Version 4 / Version 2
File size                                : 451 MiB
Duration                                 : 22mn 14s
Overall bit rate                         : 2 838 Kbps
Encoded date                             : UTC 2014-01-13 19:31:39
Writing application                      : mkvmerge v6.5.0 ('Isn't she lovely') built on Oct 20 2013 12:50:05
Writing library                          : libebml v1.3.0 + libmatroska v1.4.1
Video
ID                                       : 1
Format                                   : AVC
Format/Info                              : Advanced Video Codec
Format profile                           : High@L4.1
Format settings, CABAC                   : Yes
Format settings, ReFrames                : 9 frames
Codec ID                                 : V_MPEG4/ISO/AVC
Duration                                 : 22mn 14s
Bit rate                                 : 2 200 Kbps
Width                                    : 1 024 pixels
Height                                   : 576 pixels
Display aspect ratio                     : 16:9
Frame rate mode                          : Constant
Frame rate                               : 23.976 fps
Color space                              : YUV
Chroma subsampling                       : 4:2:0
Bit depth                                : 8 bits
Scan type                                : Progressive
Bits/(Pixel*Frame)                       : 0.156
Stream size                              : 341 MiB (75%)
Title                                    : Friends S05E01: Эпизод после того, как Росс назвал имя Рэйчел / The One After Ross Says Rachel (1998) BDRip-AVC by Gellard
Writing library                          : x264 core 138 r2358 9e941d1
Encoding settings                        : cabac=1 / ref=9 / deblock=1:-2:-1 / analyse=0x3:0x113 / me=umh / subme=11 / psy=1 / psy_rd=1.10:0.10 / mixed_ref=1 / me_range=32 / chroma_me=1 / trellis=2 / 8x8dct=1 / cqm=0 / deadzone=21,11 / fast_pskip=1 / chroma_qp_offset=-5 / threads=9 / lookahead_threads=1 / sliced_threads=0 / nr=0 / decimate=1 / interlaced=0 / bluray_compat=0 / constrained_intra=0 / bframes=9 / b_pyramid=2 / b_adapt=2 / b_bias=0 / direct=1 / weightb=1 / open_gop=0 / weightp=2 / keyint=240 / keyint_min=23 / scenecut=40 / intra_refresh=0 / rc_lookahead=40 / rc=2pass / mbtree=1 / bitrate=2200 / ratetol=1.0 / qcomp=0.60 / qpmin=10 / qpmax=69 / qpstep=4 / cplxblur=20.0 / qblur=0.5 / vbv_maxrate=62500 / vbv_bufsize=50000 / nal_hrd=none / ip_ratio=1.40 / aq=1:0.90
Language                                 : English
Default                                  : Yes
Forced                                   : No
Audio #1
ID                                       : 2
Format                                   : AC-3
Format/Info                              : Audio Coding 3
Mode extension                           : CM (complete main)
Format settings, Endianness              : Big
Codec ID                                 : A_AC3
Duration                                 : 22mn 14s
Bit rate mode                            : Constant
Bit rate                                 : 256 Kbps
Channel count                            : 2 channels
Channel positions                        : Front: L R
Sampling rate                            : 48.0 KHz
Bit depth                                : 16 bits
Compression mode                         : Lossy
Stream size                              : 40.7 MiB (9%)
Title                                    : Многоголосый (РТР) AC3 2.0 @ 256 kbps
Language                                 : Russian
Default                                  : Yes
Forced                                   : No
Audio #2
ID                                       : 3
Format                                   : AC-3
Format/Info                              : Audio Coding 3
Mode extension                           : CM (complete main)
Format settings, Endianness              : Big
Codec ID                                 : A_AC3
Duration                                 : 22mn 14s
Bit rate mode                            : Constant
Bit rate                                 : 384 Kbps
Channel count                            : 6 channels
Channel positions                        : Front: L C R, Side: L R, LFE
Sampling rate                            : 48.0 KHz
Bit depth                                : 16 bits
Compression mode                         : Lossy
Stream size                              : 61.1 MiB (14%)
Title                                    : Оригинал AC3 5.1 @ 384 kbps
Language                                 : English
Default                                  : No
Forced                                   : No
Text #1
ID                                       : 4
Format                                   : UTF-8
Codec ID                                 : S_TEXT/UTF8
Codec ID/Info                            : UTF-8 Plain Text
Title                                    : Русские (Dais)
Language                                 : Russian
Default                                  : No
Forced                                   : No
Text #2
ID                                       : 5
Format                                   : UTF-8
Codec ID                                 : S_TEXT/UTF8
Codec ID/Info                            : UTF-8 Plain Text
Title                                    : Английские (SDH)
Language                                 : English
Default                                  : No
Forced                                   : No

Альтернативные раздачи

Все раздачи сериала "Друзья"
Вне форума [Профиль] [ЛС]
Показать сообщения:    
Ответить на тему

Текущее время: Сегодня 05:15

Часовой пояс: GMT + 3



Вы не можете начинать темы
Вы не можете отвечать на сообщения
Вы не можете редактировать свои сообщения
Вы не можете удалять свои сообщения
Вы не можете голосовать в опросах
Вы не можете прикреплять файлы к сообщениям
Вы не можете скачивать файлы