Сегодня идет свободное скачивание без начисления Download

Друзья / Friends / Сезон 6 / Серии 1-25 из 25 (Дэвид Крэйн / David Crane, Марта Кауффман / Marta Kauffman) [1999-2000, США, мелодрама, комедия, BDRip-AVC] MVO (РТР) + Original + Sub (Rus, Eng)

Ответить на тему
 
Автор
Сообщение

Omen ®

Стаж: 5 лет 9 месяцев

Сообщений: 184402

Торрент-статистика

Пост 25-Фев-2014 20:00

[Цитировать]

--Друзья / Friends«Everybody needs Friends!»-- -- Страна: США
Жанр: мелодрама, комедия
Год выхода: 1999-2000
Продолжительность: 25 x 22 мин.
Перевод: профессиональный (многоголосый, закадровый) (РТР)
Субтитры: русские, английские (SDH)
Оригинальная аудиодорожка: английская
Режиссер: Дэвид Крэйн, Марта Кауффман
В ролях: Дженнифер Энистон, Кортни Кокс, Лиза Кудроу, Мэтт ЛеБлан, Мэттью Перри, Дэвид Швиммер
О фильме: Главные герои — шестеро друзей — Рейчел, Моника, Фиби, Джоуи, Чендлер и Росс. Три девушки и три парня, которые дружат, живут по соседству, вместе убивают время и противостоят жестокой реальности, делятся своими секретами и иногда очень сильно влюбляются.

Релиз от -
Автор: Gellard
Сэмпл: скачать
Качество: BDRip-AVC (источник: HDCLUB / Blu-Ray Disc / 1080p)
Формат: MKV
Видео: 1024x576 (16:9), 23.976 fps, x264, ~2200 kbps avg, 0.156 bit/pixel
Аудио #1: (MVO) 48 kHz, AC3 Dolby Digital, 2/0 (L,R) ch, 256.00 kbps avg
Аудио #2: (ENG) 48 kHz, AC3 Dolby Digital, 3/2 (L,C,R,l,r) + LFE ch, 384.00 kbps avg
Размер: ~450 Mb-
-

Скриншоты

Список серий

  • Friends S06E01: Эпизод после Вегаса / The One After Vegas (1999)
  • Friends S06E02: Эпизод, в котором Росс обнимает Рэйчел / The One Where Ross Hugs Rachel (1999)
  • Friends S06E03: Эпизод с отказом Росса / The One with Ross's Denial (1999)
  • Friends S06E04: Эпизод, в котором Джо теряет свою медицинскую страховку / The One Where Joey Loses His Insurance (1999)
  • Friends S06E05: Эпизод с Порше Джо / The One with Joey's Porsche (1999)
  • Friends S06E06: Эпизод о последнем вечере / The One on the Last Night (1999)
  • Friends S06E07: Эпизод, в котором Фиби бегает / The One Where Phoebe Runs (1999)
  • Friends S06E08: Эпизод с зубами Росса / The One with Ross' Teeth (1999)
  • Friends S06E09: Эпизод, в котором Росс обкуривается / The One Where Ross Got High (1999)
  • Friends S06E10: Эпизод c «халтуркой» / The One with the Routine (1999)
  • Friends S06E11: Эпизод c аптекарским столиком / The One with the Apothecary Table (2000)
  • Friends S06E12: Эпизод c шуткой / The One with the Joke (2000)
  • Friends S06E13: Эпизод с сестрой Рэйчел / The One with Rachel's Sister (2000)
  • Friends S06E14: Эпизод, в котором Чендлер не может плакать / The One Where Chandler Can't Cry (2000)
  • Friends S06E15: Эпизод, в котором всё могло быть иначе, часть 1 / The One That Could Have Been: Part 1 (2000)
  • Friends S06E16: Эпизод, в котором все могло быть иначе, часть 2 / The One That Could Have Been: Part 2 (2000)
  • Friends S06E17: Эпизод c «унаги» / The One with Unagi (2000)
  • Friends S06E18: Эпизод, в котором Росс назначает свидание студентке / The One Where Ross Dates a Student (2000)
  • Friends S06E19: Эпизод с холодильником Джо / The One with Joey's Fridge (2000)
  • Friends S06E20: Эпизод с Маком и Чизом / The One with Mac and C.H.E.E.S.E. (2000)
  • Friends S06E21: Эпизод, в котором Росс знакомится с отцом Элизабет / The One Where Ross Meets Elizabeth's Dad (2000)
  • Friends S06E22: Эпизод, в котором выясняется, что Пол - классный парень / The One Where Paul's the Man (2000)
  • Friends S06E23: Эпизод с кольцом / The One with the Ring (2000)
  • Friends S06E24: Эпизод с предложением, часть 1 / The One with the Proposal: Part 1 (2000)
  • Friends S06E25: Эпизод с предложением, часть 2 / The One with the Proposal: Part 2 (2000)

Media Info

Код:
Complete name                            : Friends.S06E01.The.One.After.Vegas.mkv
Format                                   : Matroska
Format version                           : Version 4 / Version 2
File size                                : 451 MiB
Duration                                 : 22mn 11s
Overall bit rate                         : 2 841 Kbps
Encoded date                             : UTC 2014-01-29 08:13:48
Writing application                      : mkvmerge v6.5.0 ('Isn't she lovely') built on Oct 20 2013 12:50:05
Writing library                          : libebml v1.3.0 + libmatroska v1.4.1
Video
ID                                       : 1
Format                                   : AVC
Format/Info                              : Advanced Video Codec
Format profile                           : High@L4.1
Format settings, CABAC                   : Yes
Format settings, ReFrames                : 9 frames
Codec ID                                 : V_MPEG4/ISO/AVC
Duration                                 : 22mn 10s
Bit rate                                 : 2 200 Kbps
Width                                    : 1 024 pixels
Height                                   : 576 pixels
Display aspect ratio                     : 16:9
Frame rate mode                          : Constant
Frame rate                               : 23.976 fps
Color space                              : YUV
Chroma subsampling                       : 4:2:0
Bit depth                                : 8 bits
Scan type                                : Progressive
Bits/(Pixel*Frame)                       : 0.156
Stream size                              : 340 MiB (75%)
Title                                    : Friends S06E01: Эпизод после Вегаса / The One After Vegas (1999) BDRip-AVC by Gellard
Writing library                          : x264 core 138 r2358 9e941d1
Encoding settings                        : cabac=1 / ref=9 / deblock=1:-2:-1 / analyse=0x3:0x113 / me=umh / subme=11 / psy=1 / psy_rd=1.10:0.10 / mixed_ref=1 / me_range=32 / chroma_me=1 / trellis=2 / 8x8dct=1 / cqm=0 / deadzone=21,11 / fast_pskip=1 / chroma_qp_offset=-5 / threads=9 / lookahead_threads=1 / sliced_threads=0 / nr=0 / decimate=1 / interlaced=0 / bluray_compat=0 / constrained_intra=0 / bframes=9 / b_pyramid=2 / b_adapt=2 / b_bias=0 / direct=1 / weightb=1 / open_gop=0 / weightp=2 / keyint=240 / keyint_min=23 / scenecut=40 / intra_refresh=0 / rc_lookahead=40 / rc=2pass / mbtree=1 / bitrate=2200 / ratetol=1.0 / qcomp=0.60 / qpmin=10 / qpmax=69 / qpstep=4 / cplxblur=20.0 / qblur=0.5 / vbv_maxrate=62500 / vbv_bufsize=50000 / nal_hrd=none / ip_ratio=1.40 / aq=1:0.90
Language                                 : English
Default                                  : Yes
Forced                                   : No
Audio #1
ID                                       : 2
Format                                   : AC-3
Format/Info                              : Audio Coding 3
Mode extension                           : CM (complete main)
Format settings, Endianness              : Big
Codec ID                                 : A_AC3
Duration                                 : 22mn 11s
Bit rate mode                            : Constant
Bit rate                                 : 256 Kbps
Channel count                            : 2 channels
Channel positions                        : Front: L R
Sampling rate                            : 48.0 KHz
Bit depth                                : 16 bits
Compression mode                         : Lossy
Stream size                              : 40.6 MiB (9%)
Title                                    : Многоголосый (РТР) AC3 2.0 @ 256 kbps
Language                                 : Russian
Default                                  : Yes
Forced                                   : No
Audio #2
ID                                       : 3
Format                                   : AC-3
Format/Info                              : Audio Coding 3
Mode extension                           : CM (complete main)
Format settings, Endianness              : Big
Codec ID                                 : A_AC3
Duration                                 : 22mn 11s
Bit rate mode                            : Constant
Bit rate                                 : 384 Kbps
Channel count                            : 6 channels
Channel positions                        : Front: L C R, Side: L R, LFE
Sampling rate                            : 48.0 KHz
Bit depth                                : 16 bits
Compression mode                         : Lossy
Stream size                              : 60.9 MiB (14%)
Title                                    : Оригинал AC3 5.1 @ 384 kbps
Language                                 : English
Default                                  : No
Forced                                   : No
Text #1
ID                                       : 4
Format                                   : UTF-8
Codec ID                                 : S_TEXT/UTF8
Codec ID/Info                            : UTF-8 Plain Text
Title                                    : Русские
Language                                 : Russian
Default                                  : No
Forced                                   : No
Text #2
ID                                       : 5
Format                                   : UTF-8
Codec ID                                 : S_TEXT/UTF8
Codec ID/Info                            : UTF-8 Plain Text
Title                                    : Английские
Language                                 : English
Default                                  : No
Forced                                   : No

Альтернативные раздачи

Все раздачи сериала "Друзья"
Вне форума [Профиль] [ЛС]
Показать сообщения:    
Ответить на тему

Текущее время: Сегодня 08:00

Часовой пояс: GMT + 3



Вы не можете начинать темы
Вы не можете отвечать на сообщения
Вы не можете редактировать свои сообщения
Вы не можете удалять свои сообщения
Вы не можете голосовать в опросах
Вы не можете прикреплять файлы к сообщениям
Вы не можете скачивать файлы