Сегодня идет свободное скачивание без начисления Download

Крепкий орешек / Die Hard (1988-2013) BDRip [720p] [hand made 60fps] [Антология]

Ответить на тему
 
Автор
Сообщение

Varius ®

Пол:

Стаж: 7 лет 7 месяцев

Сообщений: 3280

Откуда: Hell

Торрент-статистика

Пост 24-Фев-2014 04:53

[Цитировать]

Крепкий орешек / Die Hard (1988-2013) BDRip [720p] [hand made 60fps] [Антология]- Жанр: Боевик, Триллер
Года производства: 1988, 1990, 1995, 2007, 2013
Произведено: США, Великобритания
Продолжительность: 02:12:26; 02:03:21; 02:08:32; 02:08:43; 01:41:11
Описание
Крепкий орешек — адаптация романа «Ничто не вечно» Родерика Торпа. «Ничто не вечно» является продолжением романа «Детектив», который также был экранизирован в виде фильма с Фрэнком Синатрой в главной роли. Крепкий орешек 2 основан на романе «58 минут» Уолтера Уэйджера. Крепкий орешек 3: Возмездие — экранизация сценария под названием «Саймон говорит» Джонатана Хенсли. Крепкий орешек 4.0 основан на статье из журнала Wired «Прощай, оружие» Джона Карлина.-

Рецензия, отзыв о фильмах

В 2,5 раза больше кадров!
В 2,5 раза больше исходника (BDrip 720p)!
В 2,5 раза плавнее! (59,94 fps)

Рекомендации к просмотру на ПК.

Программа для воспроизведения Media Player Classic x32 или x64.Минимум одноядерный ЦП с частотой минимум 2000гц.Оперативной памяти для стабильной работы программы необходимо 150мб.
На всякий случай обновите кодеки K-lite.

Крепкий орешек

Крепкий орешек / Die hard -Оригинальное название: Die Hard
Год выпуска: 1988
Жанр: Боевик, Триллер
Производство: США
Описание фильма:
В суперсовременном небоскребе Лос-Анджелеса полицейский Джон Макклейн ведет смертельную схватку с бандой политических террористов, взявших в заложники два десятка человек, в число которых попадает и его жена. Началось все с того, что парень приехал в город к жене, оказался на рождественском приеме, а кончилось настоящей войной…
Режиссер: Ренни Харлин
Актеры: Брюс Уиллис, Бонни Беделиа, Уильям Сэдлер, Франко Неро, Уильям Этертон, Деннис Франц, Джон Эймос, Арт Эванс, Фред Долтон Томпсон, Реджинальд ВелДжонсон
Продолжительность: 02:12:26
Качество видео: BDRip
Перевод: Дублированный
Язык субтитров: Rus (полные), Eng (полные)
Вид субтитров: Вшитые

Видеокодек: MPEG-4 AVC/H.264
Битрейт видео: ~10000 kb/s
Размер кадра: 1280*544
Аудио 1 Русский: AC3 5.1, 640 kb/s
Аудио 2 Английский: AC3 5.1, 640 kb/s
Сэмпл: Ссылка

MI

Общее
Уникальный идентификатор : 182358919819279838281664676678815004382 (0x89310CE9052C5AFEB166DBF0DEC536DE)
Полное имя : Y:\Фильмы\Крепкий орешек\Крепкий орешек 1.mkv
Формат : Matroska
Версия формата : Version 4 / Version 2
Размер файла : 10,4 Гбайт
Продолжительность : 2 ч. 12 м.
Общий поток : 11,2 Мбит/сек
Дата кодирования : UTC 2014-02-23 10:10:40
Программа кодирования : mkvmerge v6.7.0 ('Back to the Ground') 64bit built on Jan 8 2014 15:10:52
Библиотека кодирования : libebml v1.3.0 + libmatroska v1.4.1
Видео
Идентификатор : 1
Формат : AVC
Формат/Информация : Advanced Video Codec
Профиль формата : [url=mailto:High@L4.1]High@L4.1[/url]
Параметр CABAC формата : Да
Параметр ReFrames формата : 9 кадров
Идентификатор кодека : V_MPEG4/ISO/AVC
Продолжительность : 2 ч. 12 м.
Битрейт : 10000 Кбит/сек
Ширина : 1280 пикселей
Высота : 544 пикселя
Соотношение сторон : 2,35:1
Режим частоты кадров : Постоянный
Частота кадров : 59,880 кадров/сек
Частота кадров в оригинале : 59,940 кадров/сек
Цветовое пространство : YUV
Субдискретизация насыщенности : 4:2:0
Битовая глубина : 8 бит
Тип развёртки : Прогрессивная
Бит/(Пиксели*Кадры) : 0.240
Размер потока : 9,01 Гбайт (87%)
Библиотека кодирования : x264 core 130 r2273 b3065e6
Настройки программы : cabac=1 / ref=9 / deblock=1:-1:-1 / analyse=0x3:0 / me=umh / subme=9 / psy=1 / psy_rd=1.00:0.10 / mixed_ref=1 / me_range=24 / chroma_me=0 / trellis=1 / 8x8dct=1 / cqm=0 / deadzone=21,11 / fast_pskip=0 / chroma_qp_offset=-3 / threads=6 / lookahead_threads=1 / sliced_threads=0 / nr=0 / decimate=0 / interlaced=0 / bluray_compat=0 / constrained_intra=0 / bframes=6 / b_pyramid=2 / b_adapt=2 / b_bias=0 / direct=3 / weightb=1 / open_gop=0 / weightp=2 / keyint=250 / keyint_min=25 / scenecut=40 / intra_refresh=0 / rc=2pass / mbtree=0 / bitrate=10000 / ratetol=1.0 / qcomp=0.60 / qpmin=0 / qpmax=69 / qpstep=4 / cplxblur=20.0 / qblur=0.5 / ip_ratio=1.40 / pb_ratio=1.30 / aq=1:0.90
Язык : English
Default : Да
Forced : Нет
Аудио #1
Идентификатор : 2
Формат : AC-3
Формат/Информация : Audio Coding 3
Расширение режима : CM (complete main)
Параметр Endianness формата : Big
Идентификатор кодека : A_AC3
Продолжительность : 2 ч. 12 м.
Вид битрейта : Постоянный
Битрейт : 640 Кбит/сек
Каналы : 6 каналов
Расположение каналов : Front: L C R, Side: L R, LFE
Частота : 48,0 КГц
Битовая глубина : 16 бит
Метод сжатия : С потерями
Размер потока : 606 Мбайт (6%)
Заголовок : Dub
Язык : Russian
Default : Да
Forced : Нет
Аудио #2
Идентификатор : 3
Формат : AC-3
Формат/Информация : Audio Coding 3
Расширение режима : CM (complete main)
Параметр Endianness формата : Big
Идентификатор кодека : A_AC3
Продолжительность : 2 ч. 12 м.
Вид битрейта : Постоянный
Битрейт : 640 Кбит/сек
Каналы : 6 каналов
Расположение каналов : Front: L C R, Side: L R, LFE
Частота : 48,0 КГц
Битовая глубина : 16 бит
Метод сжатия : С потерями
Размер потока : 606 Мбайт (6%)
Заголовок : Original
Язык : English
Default : Нет
Forced : Нет
Текст #1
Идентификатор : 4
Формат : UTF-8
Идентификатор кодека : S_TEXT/UTF8
Идентификатор кодека/Информация : UTF-8 Plain Text
Заголовок : Full
Язык : Russian
Default : Нет
Forced : Нет
Текст #2
Идентификатор : 5
Формат : UTF-8
Идентификатор кодека : S_TEXT/UTF8
Идентификатор кодека/Информация : UTF-8 Plain Text
Заголовок : Full
Язык : English
Default : Нет
Forced : Нет
Меню
00:00:00.000 : en:Landing in L.a.
00:02:21.391 : en:Festival Night
00:03:57.779 : en:Mcclane Residence
00:05:11.937 : en:Argyle
00:06:09.828 : en:The Limo
00:07:50.929 : en:Nakatomi Plaza
00:11:58.134 : en:Takagi & Ellis
00:13:17.922 : en:Reunited
00:14:03.092 : en:Uninvited Guests
00:14:18.357 : en:Seperation Anxiety
00:16:58.309 : en:Hostile Takeover
00:21:00.467 : en:Disconnected Parties
00:22:41.986 : en:Party Crashers
00:24:53.242 : en:Meet Hans Gruber
00:26:50.317 : en:Industrialization and Men's Fashions
00:28:50.228 : en:Fill in the Blanks
00:33:24.461 : en:The Vault
00:34:08.630 : en:False Alarm
00:35:26.416 : en:I Promise I Won't Hurt You
00:38:18.671 : en:Ho Ho Ho
00:42:33.593 : en:Blood Lust
00:43:24.143 : en:Mayday
00:45:18.424 : en:Twinkie Patrol
00:47:59.418 : en:The Shaft
00:52:39.031 : en:Not a Creature Stirring
00:56:49.156 : en:Welcome to the Party, Pal
00:57:55.222 : en:Dick Thornburg
00:58:38.723 : en:Mr. Mystery Guest
01:00:49.479 : en:Kflw News
01:01:38.862 : en:Missing Detonators
01:04:18.396 : en:L.a.'s Finest
01:07:44.102 : en:Going In
01:12:58.290 : en:Lapd Rv
01:15:19.056 : en:Chair Bomb
01:19:14.750 : en:Contract Negotiations
01:26:10.790 : en:Issuing Demands
01:28:49.783 : en:Hostage Terrorist, Terrorist Hostage
01:29:27.237 : en:Johnson & Johnson
01:30:06.943 : en:Cat and Mouse
01:35:43.446 : en:Shoot the Glass
01:38:57.973 : en:Powell's Confession
01:41:26.747 : en:Merry Christmas From the Fbi
01:45:24.610 : en:Mcclaine's Confession
01:47:45.000 : en:Nightly News
01:48:10.943 : en:Vendetta
01:49:49.958 : en:Meeting Mrs. Mcclane
01:51:09.413 : en:Choppers Up the Ass
01:54:16.016 : en:The Roof
01:58:22.762 : en:Escape Plan Foiled
01:59:44.260 : en:Showdown
02:02:00.605 : en:Happy Trails, Hans
02:03:48.838 : en:Partner's Meet
02:05:13.130 : en:Powell's Comeback
02:06:28.122 : en:Let It Snow
02:07:19.048 : en:End Credits
Скриншоты:
       
Время раздачи: 24/7

Крепкий орешек 2

Крепкий орешек 2 / Die hard 2-Оригинальное название: Die Hard 2
Год выпуска: 1990
Жанр: Боевик, Триллер
Производство: США
Описание фильма:
В канун Рождества группа террористов захватила международный аэропорт и теперь удерживает тысячи путешествующих в качестве заложников. Террористы — банда отступников из первоклассно вооруженных коммандос, возглавляемых одержимым жестокостью офицером. Их цель — спасти наркобарона.
Банда подготовлена ко всевозможным случайностям, за исключением одной — встречи с Джоном Макклейном. Брюс Уиллис возвращается в роли супергероя-полицейского, который сражается не только с террористами, но и с некомпетентным шефом полиции аэропорта, тупоголовым начальником антитеррористического подразделения и страшным снежным бураном.
Заложники мечутся, смертельно испуганные и растерянные. А Джон Макклейн ведет схватку и со временем. Его жена находится в одном из самолетов, кружащих над аэропортом. А топливо — на пределе…
Режиссер: Джон МакТирнан
Актеры: Брюс Уиллис, Алан Рикман, Бонни Беделиа, Реджинальд ВелДжонсон, Пол Глисон, Уильям Этертон, Харт Бокнер, Джеймс Шигета, Александр Годунов, Роберт Дави
Продолжительность: 02:03:21
Качество видео: BDRip
Перевод: Дублированный
Язык субтитров: Rus (полные), Eng (полные)
Вид субтитров: Вшитые

Видеокодек: MPEG-4 AVC/H.264
Битрейт видео: ~10000 kb/s
Размер кадра: 1280*544
Аудио 1 Русский: AC3 5.1, 640 kb/s
Аудио 2 Английский: AC3 5.1, 640 kb/s
Сэмпл: Ссылка

MI

Общее
Уникальный идентификатор : 206933496762695635891992886791935296475 (0x9BADF1193A728BA199492CF64E6703DB)
Полное имя : Y:\Фильмы\Крепкий орешек\Крепкий орешек 2.mkv
Формат : Matroska
Версия формата : Version 4 / Version 2
Размер файла : 9,71 Гбайт
Продолжительность : 2 ч. 3 м.
Общий поток : 11,3 Мбит/сек
Дата кодирования : UTC 2014-02-23 10:29:58
Программа кодирования : mkvmerge v6.7.0 ('Back to the Ground') 64bit built on Jan 8 2014 15:10:52
Библиотека кодирования : libebml v1.3.0 + libmatroska v1.4.1
Видео
Идентификатор : 1
Формат : AVC
Формат/Информация : Advanced Video Codec
Профиль формата : [url=mailto:High@L4.1]High@L4.1[/url]
Параметр CABAC формата : Да
Параметр ReFrames формата : 9 кадров
Идентификатор кодека : V_MPEG4/ISO/AVC
Продолжительность : 2 ч. 3 м.
Битрейт : 10000 Кбит/сек
Ширина : 1280 пикселей
Высота : 544 пикселя
Соотношение сторон : 2,35:1
Режим частоты кадров : Постоянный
Частота кадров : 59,880 кадров/сек
Частота кадров в оригинале : 59,940 кадров/сек
Цветовое пространство : YUV
Субдискретизация насыщенности : 4:2:0
Битовая глубина : 8 бит
Тип развёртки : Прогрессивная
Бит/(Пиксели*Кадры) : 0.240
Размер потока : 8,42 Гбайт (87%)
Библиотека кодирования : x264 core 130 r2273 b3065e6
Настройки программы : cabac=1 / ref=9 / deblock=1:-1:-1 / analyse=0x3:0 / me=umh / subme=9 / psy=1 / psy_rd=1.00:0.10 / mixed_ref=1 / me_range=24 / chroma_me=0 / trellis=1 / 8x8dct=1 / cqm=0 / deadzone=21,11 / fast_pskip=0 / chroma_qp_offset=-3 / threads=6 / lookahead_threads=1 / sliced_threads=0 / nr=0 / decimate=0 / interlaced=0 / bluray_compat=0 / constrained_intra=0 / bframes=6 / b_pyramid=2 / b_adapt=2 / b_bias=0 / direct=3 / weightb=1 / open_gop=0 / weightp=2 / keyint=250 / keyint_min=25 / scenecut=40 / intra_refresh=0 / rc=2pass / mbtree=0 / bitrate=10000 / ratetol=1.0 / qcomp=0.60 / qpmin=0 / qpmax=69 / qpstep=4 / cplxblur=20.0 / qblur=0.5 / ip_ratio=1.40 / pb_ratio=1.30 / aq=1:0.90
Язык : English
Default : Да
Forced : Нет
Аудио #1
Идентификатор : 2
Формат : AC-3
Формат/Информация : Audio Coding 3
Расширение режима : CM (complete main)
Параметр Endianness формата : Big
Идентификатор кодека : A_AC3
Продолжительность : 2 ч. 3 м.
Вид битрейта : Постоянный
Битрейт : 640 Кбит/сек
Каналы : 6 каналов
Расположение каналов : Front: L C R, Side: L R, LFE
Частота : 48,0 КГц
Битовая глубина : 16 бит
Метод сжатия : С потерями
Размер потока : 565 Мбайт (6%)
Заголовок : Dub
Язык : Russian
Default : Да
Forced : Нет
Аудио #2
Идентификатор : 3
Формат : AC-3
Формат/Информация : Audio Coding 3
Расширение режима : CM (complete main)
Параметр Endianness формата : Big
Идентификатор кодека : A_AC3
Продолжительность : 2 ч. 3 м.
Вид битрейта : Постоянный
Битрейт : 640 Кбит/сек
Каналы : 6 каналов
Расположение каналов : Front: L C R, Side: L R, LFE
Частота : 48,0 КГц
Битовая глубина : 16 бит
Метод сжатия : С потерями
Размер потока : 565 Мбайт (6%)
Заголовок : Original
Язык : English
Default : Нет
Forced : Нет
Текст #1
Идентификатор : 4
Формат : UTF-8
Идентификатор кодека : S_TEXT/UTF8
Идентификатор кодека/Информация : UTF-8 Plain Text
Заголовок : Full
Язык : Russian
Default : Нет
Forced : Нет
Текст #2
Идентификатор : 5
Формат : UTF-8
Идентификатор кодека : S_TEXT/UTF8
Идентификатор кодека/Информация : UTF-8 Plain Text
Заголовок : Full
Язык : English
Default : Нет
Forced : Нет
Меню
00:00:00.000 : en:Main Title: Merry Christmas!
00:06:14.583 : en:The Church of Choice
00:08:14.536 : en:At The Airport
00:12:15.693 : en:Baggage Mishandling
00:16:21.439 : en:Cabin Fever
00:18:32.695 : en:The Colonel's Headquarters
00:19:32.129 : en:A Chat With Lorenzo
00:23:22.735 : en:Esperanza Enroute
00:25:09.925 : en:Powell on The Line
00:27:03.247 : en:Traffic Control
00:29:48.078 : en:McClane Raises a Question
00:36:46.246 : en:McClane Gets Evicted
00:39:14.769 : en:Another Plan
00:40:02.775 : en:Marvin
00:43:37.156 : en:Shootout at The Skywalk
00:48:58.477 : en:Closer Than 50 Yards
00:49:57.036 : en:Paying The Penalty
00:52:30.731 : en:Learning a Lesson
00:58:29.673 : en:Aftermath
01:01:43.950 : en:Thornberg Tunes In
01:02:39.923 : en:The Anti-Terrorist Team
01:04:47.383 : en:The Outer Marker
01:06:38.411 : en:Thornberg Gets A Scoop
01:08:12.255 : en:The Right Frequency
01:09:54.440 : en:A New Position
01:10:59.755 : en:The Falcon Is Landing
01:16:23.245 : en:Emergency Exit
01:21:56.370 : en:The Old Plans
01:23:27.211 : en:The Old Church
01:25:40.886 : en:The Raid
01:30:53.990 : en:On Thin Ice
01:33:17.634 : en:The Enemy Within
01:34:23.157 : en:Thornberg Goes Live
01:41:09.689 : en:The Getaway
01:42:31.854 : en:Crash Positions
01:44:53.162 : en:Hitching A Ride
01:46:36.432 : en:Wing Walkers
01:49:13.255 : en:Landing Lights
01:53:34.433 : en:Holly!
01:56:08.712 : en:End Titles (Let It Snow)
Скриншоты:
       
Время раздачи: 24/7

Крепкий орешек 3: Возмездие

Крепкий орешек 3: Возмездие / Die Hard: With a Vengeance-Оригинальное название: Die Hard: With a Vengeance
Год выпуска: 1995
Жанр: Боевик, Триллер
Производство: США
Описание фильма:
На улицах Нью-Йорка офицер полиции Джон МакКлейн видел все, что только возможно. На этот раз для того, чтобы отомстить МакКлейну, террорист Саймон, виртуозно устраивающий взрывы, заставляет героя — полицейского играть в смертельную игру. Ставка — город Нью-Йорк.
МакКлейн вынужден метаться по городу, следуя телефонным указаниям Саймона, готового разнести пол — Нью-Йорка за малейшее отклонение от его требований. И в то время, как вся полиция города занята поисками террористов, преступники похищают золотой запас Национального банка США.
У МакКлейна бывали неудачные деньки за годы службы в полиции, но сегодня у него, похоже, будет исключительно скверный день…
Режиссер: Джон МакТирнан
Актеры: Брюс Уиллис, Сэмюэл Л. Джексон, Джереми Айронс, Ларри Бриггман, Грэм Грин, Коллин Кэмп, Энтони Пек, Николас Уаймэн, Сэм Филлипс, Кевин Чэмберлин
Продолжительность: 02:08:32
Качество видео: BDRip
Перевод: Многоголосный, закадровый
Язык субтитров: Rus (полные), Eng (полные)
Вид субтитров: Вшитые

Видеокодек: MPEG-4 AVC/H.264
Битрейт видео: ~10000 kb/s
Размер кадра: 1280*544
Аудио 1 Русский: AC3 5.1, 448 kb/s
Аудио 2 Английский: AC3 5.1, 640 kb/s
Сэмпл: Ссылка

MI

Общее
Уникальный идентификатор : 242053038410056669576224435552479764426 (0xB619B82FDDD0364088CD49BFD5A65FCA)
Полное имя : Y:\Фильмы\Крепкий орешек\Крепкий орешек 3.mkv
Формат : Matroska
Версия формата : Version 4 / Version 2
Размер файла : 9,95 Гбайт
Продолжительность : 2 ч. 8 м.
Общий поток : 11,1 Мбит/сек
Дата кодирования : UTC 2014-02-23 10:42:10
Программа кодирования : mkvmerge v6.7.0 ('Back to the Ground') 64bit built on Jan 8 2014 15:10:52
Библиотека кодирования : libebml v1.3.0 + libmatroska v1.4.1
Видео
Идентификатор : 1
Формат : AVC
Формат/Информация : Advanced Video Codec
Профиль формата : [url=mailto:High@L4.1]High@L4.1[/url]
Параметр CABAC формата : Да
Параметр ReFrames формата : 9 кадров
Идентификатор кодека : V_MPEG4/ISO/AVC
Продолжительность : 2 ч. 8 м.
Битрейт : 10000 Кбит/сек
Ширина : 1280 пикселей
Высота : 544 пикселя
Соотношение сторон : 2,35:1
Режим частоты кадров : Постоянный
Частота кадров : 59,880 кадров/сек
Частота кадров в оригинале : 59,940 кадров/сек
Цветовое пространство : YUV
Субдискретизация насыщенности : 4:2:0
Битовая глубина : 8 бит
Тип развёртки : Прогрессивная
Бит/(Пиксели*Кадры) : 0.240
Размер потока : 8,77 Гбайт (88%)
Библиотека кодирования : x264 core 130 r2273 b3065e6
Настройки программы : cabac=1 / ref=9 / deblock=1:-1:-1 / analyse=0x3:0 / me=umh / subme=9 / psy=1 / psy_rd=1.00:0.10 / mixed_ref=1 / me_range=24 / chroma_me=0 / trellis=1 / 8x8dct=1 / cqm=0 / deadzone=21,11 / fast_pskip=0 / chroma_qp_offset=-3 / threads=6 / lookahead_threads=1 / sliced_threads=0 / nr=0 / decimate=0 / interlaced=0 / bluray_compat=0 / constrained_intra=0 / bframes=6 / b_pyramid=2 / b_adapt=2 / b_bias=0 / direct=3 / weightb=1 / open_gop=0 / weightp=2 / keyint=250 / keyint_min=25 / scenecut=40 / intra_refresh=0 / rc=2pass / mbtree=0 / bitrate=10000 / ratetol=1.0 / qcomp=0.60 / qpmin=0 / qpmax=69 / qpstep=4 / cplxblur=20.0 / qblur=0.5 / ip_ratio=1.40 / pb_ratio=1.30 / aq=1:0.90
Язык : English
Default : Да
Forced : Нет
Аудио #1
Идентификатор : 2
Формат : AC-3
Формат/Информация : Audio Coding 3
Расширение режима : CM (complete main)
Параметр Endianness формата : Big
Идентификатор кодека : A_AC3
Продолжительность : 2 ч. 8 м.
Вид битрейта : Постоянный
Битрейт : 448 Кбит/сек
Каналы : 6 каналов
Расположение каналов : Front: L C R, Side: L R, LFE
Частота : 48,0 КГц
Битовая глубина : 16 бит
Метод сжатия : С потерями
Размер потока : 412 Мбайт (4%)
Заголовок : MVO
Язык : Russian
Default : Да
Forced : Нет
Аудио #2
Идентификатор : 3
Формат : AC-3
Формат/Информация : Audio Coding 3
Расширение режима : CM (complete main)
Параметр Endianness формата : Big
Идентификатор кодека : A_AC3
Продолжительность : 2 ч. 8 м.
Вид битрейта : Постоянный
Битрейт : 640 Кбит/сек
Каналы : 6 каналов
Расположение каналов : Front: L C R, Side: L R, LFE
Частота : 48,0 КГц
Битовая глубина : 16 бит
Метод сжатия : С потерями
Размер потока : 588 Мбайт (6%)
Заголовок : Original
Язык : English
Default : Нет
Forced : Нет
Текст #1
Идентификатор : 4
Формат : UTF-8
Идентификатор кодека : S_TEXT/UTF8
Идентификатор кодека/Информация : UTF-8 Plain Text
Заголовок : Full
Язык : Russian
Default : Нет
Forced : Нет
Текст #2
Идентификатор : 5
Формат : UTF-8
Идентификатор кодека : S_TEXT/UTF8
Идентификатор кодека/Информация : UTF-8 Plain Text
Заголовок : Full
Язык : English
Default : Нет
Forced : Нет
Меню
00:00:00.000 : en:00:00:00.000
00:00:53.845 : en:00:00:53.845
00:01:53.989 : en:00:01:53.989
00:03:50.981 : en:00:03:50.981
00:07:58.144 : en:00:07:58.144
00:09:09.466 : en:00:09:09.466
00:13:38.151 : en:00:13:38.151
00:16:53.596 : en:00:16:53.596
00:22:55.374 : en:00:22:55.374
00:27:32.526 : en:00:27:32.526
00:32:39.499 : en:00:32:39.499
00:37:31.583 : en:00:37:31.583
00:40:18.249 : en:00:40:18.249
00:43:39.033 : en:00:43:39.033
00:48:48.300 : en:00:48:48.300
00:52:04.330 : en:00:52:04.330
00:52:38.739 : en:00:52:38.739
00:56:09.825 : en:00:56:09.825
00:58:38.932 : en:00:58:38.932
01:02:57.148 : en:01:02:57.148
01:04:43.630 : en:01:04:43.630
01:07:44.811 : en:01:07:44.811
01:11:36.375 : en:01:11:36.375
01:17:05.120 : en:01:17:05.120
01:20:17.646 : en:01:20:17.646
01:21:17.498 : en:01:21:17.498
01:24:42.661 : en:01:24:42.661
01:27:43.300 : en:01:27:43.300
01:28:20.670 : en:01:28:20.670
01:31:47.711 : en:01:31:47.711
01:32:35.508 : en:01:32:35.508
01:34:18.862 : en:01:34:18.862
01:39:24.417 : en:01:39:24.417
01:40:45.248 : en:01:40:45.248
01:43:52.935 : en:01:43:52.935
01:47:53.550 : en:01:47:53.550
01:53:03.527 : en:01:53:03.527
01:55:59.452 : en:01:55:59.452
01:59:27.202 : en:01:59:27.202
02:00:27.303 : en:02:00:27.303
Скриншоты:
       
Время раздачи: 24/7

Крепкий орешек 4.0

Крепкий орешек 4.0 / Live Free or Die Hard-Оригинальное название: Live Free or Die Hard
Год выпуска: 2007
Жанр: Боевик, Триллер
Производство: США, Великобритания
Описание фильма:
Мир опять на краю гибели из-за новой террористической угрозы. В этот раз в «заложниках» оказывается всемирная компьютерная сеть. Правительство и спецслужбы бессильны, все готово погрузиться в хаос. Но на борьбу с нависшей над миром опасностью выходит наш старый герой Джон МакКлейн со своей неразлучной подругой «Береттой».
Он давно в отставке, но когда на карту поставлена жизнь членов его семьи, он не будет стоять в стороне и бросит вызов террористам. Однако в этот раз ему уже не справиться без молодого, но очень талантливого помощника.
Режиссер: Лен Уайзман
Актеры: Брюс Уиллис, Джастин Лонг, Тимоти Олифант, Мэгги Кью, Клифф Кёртис, Джонатан Садовский, Мэри Элизабет Уинстэд, Кевин Смит, Эндрю Фридман, Сирил Раффаэлли
Продолжительность: 02:08:43
Качество видео: BDRip
Перевод: Дублированный
Язык субтитров: Rus (полные), Eng (полные)
Вид субтитров: Вшитые

Видеокодек: MPEG-4 AVC/H.264
Битрейт видео: ~10000 kb/s
Размер кадра: 1280*576
Аудио 1 Русский: AC3 5.1, 640 kb/s
Аудио 2 Английский: AC3 5.1, 640 kb/s
Сэмпл: Ссылка

MI

Общее
Уникальный идентификатор : 190080276894485089117553489116262743184 (0x8F002134BAF549FCA00661C24D36BC90)
Полное имя : Y:\Фильмы\Крепкий орешек\Крепкий орешек 4.mkv
Формат : Matroska
Версия формата : Version 4 / Version 2
Размер файла : 10,1 Гбайт
Продолжительность : 2 ч. 8 м.
Общий поток : 11,3 Мбит/сек
Дата кодирования : UTC 2014-02-23 10:52:07
Программа кодирования : mkvmerge v6.7.0 ('Back to the Ground') 64bit built on Jan 8 2014 15:10:52
Библиотека кодирования : libebml v1.3.0 + libmatroska v1.4.1
Видео
Идентификатор : 1
Формат : AVC
Формат/Информация : Advanced Video Codec
Профиль формата : [url=mailto:High@L4.1]High@L4.1[/url]
Параметр CABAC формата : Да
Параметр ReFrames формата : 9 кадров
Идентификатор кодека : V_MPEG4/ISO/AVC
Продолжительность : 2 ч. 8 м.
Битрейт : 10000 Кбит/сек
Ширина : 1280 пикселей
Высота : 576 пикселей
Соотношение сторон : 2,222
Режим частоты кадров : Постоянный
Частота кадров : 59,880 кадров/сек
Частота кадров в оригинале : 59,940 кадров/сек
Цветовое пространство : YUV
Субдискретизация насыщенности : 4:2:0
Битовая глубина : 8 бит
Тип развёртки : Прогрессивная
Бит/(Пиксели*Кадры) : 0.227
Размер потока : 8,78 Гбайт (87%)
Библиотека кодирования : x264 core 130 r2273 b3065e6
Настройки программы : cabac=1 / ref=9 / deblock=1:-1:-1 / analyse=0x3:0 / me=umh / subme=9 / psy=1 / psy_rd=1.00:0.10 / mixed_ref=1 / me_range=24 / chroma_me=0 / trellis=1 / 8x8dct=1 / cqm=0 / deadzone=21,11 / fast_pskip=0 / chroma_qp_offset=-3 / threads=6 / lookahead_threads=1 / sliced_threads=0 / nr=0 / decimate=0 / interlaced=0 / bluray_compat=0 / constrained_intra=0 / bframes=6 / b_pyramid=2 / b_adapt=2 / b_bias=0 / direct=3 / weightb=1 / open_gop=0 / weightp=2 / keyint=250 / keyint_min=25 / scenecut=40 / intra_refresh=0 / rc=2pass / mbtree=0 / bitrate=10000 / ratetol=1.0 / qcomp=0.60 / qpmin=0 / qpmax=69 / qpstep=4 / cplxblur=20.0 / qblur=0.5 / ip_ratio=1.40 / pb_ratio=1.30 / aq=1:0.90
Язык : English
Default : Да
Forced : Нет
Аудио #1
Идентификатор : 2
Формат : AC-3
Формат/Информация : Audio Coding 3
Расширение режима : CM (complete main)
Параметр Endianness формата : Big
Идентификатор кодека : A_AC3
Продолжительность : 2 ч. 8 м.
Вид битрейта : Постоянный
Битрейт : 640 Кбит/сек
Каналы : 6 каналов
Расположение каналов : Front: L C R, Side: L R, LFE
Частота : 48,0 КГц
Битовая глубина : 16 бит
Метод сжатия : С потерями
Размер потока : 589 Мбайт (6%)
Заголовок : Dub
Язык : Russian
Default : Да
Forced : Нет
Аудио #2
Идентификатор : 3
Формат : AC-3
Формат/Информация : Audio Coding 3
Расширение режима : CM (complete main)
Параметр Endianness формата : Big
Идентификатор кодека : A_AC3
Продолжительность : 2 ч. 8 м.
Вид битрейта : Постоянный
Битрейт : 640 Кбит/сек
Каналы : 6 каналов
Расположение каналов : Front: L C R, Side: L R, LFE
Частота : 48,0 КГц
Битовая глубина : 16 бит
Метод сжатия : С потерями
Размер потока : 589 Мбайт (6%)
Заголовок : Original
Язык : English
Default : Нет
Forced : Нет
Текст #1
Идентификатор : 4
Формат : UTF-8
Идентификатор кодека : S_TEXT/UTF8
Идентификатор кодека/Информация : UTF-8 Plain Text
Заголовок : Full
Язык : Russian
Default : Нет
Forced : Нет
Текст #2
Идентификатор : 5
Формат : UTF-8
Идентификатор кодека : S_TEXT/UTF8
Идентификатор кодека/Информация : UTF-8 Plain Text
Заголовок : Full
Язык : English
Default : Нет
Forced : Нет
Меню
00:00:00.000 : en:Encrypted
00:03:53.149 : en:The Tunnel
00:06:18.544 : en:Problem in Tower Seven
00:07:49.135 : en:A Favor for the Feds
00:11:31.524 : en:Back From the Dead
00:15:16.081 : en:Breach (Main Titles)
00:17:57.493 : en:The Hacker
00:20:47.496 : en:Under Fire
00:25:55.887 : en:Escape
00:27:30.106 : en:A Problem in New Jersey
00:30:02.884 : en:Gabriels Gambit
00:31:27.719 : en:Another Day in Paradise
00:33:47.066 : en:Downloads
00:38:16.294 : en:Accessories to Armageddon
00:41:04.253 : en:The Video Package
00:45:42.865 : en:Stage Two
00:52:16.133 : en:The Tunnel
00:55:26.573 : en:The Eastern Hub
00:58:02.312 : en:Woodlawn
01:00:47.060 : en:The Sales Over
01:02:29.871 : en:Getting the Shaft
01:08:15.508 : en:The Power Grid
01:12:31.263 : en:"Emergency!"
01:17:01.199 : en:Aerial Assault
01:18:28.161 : en:A Little Fresh Air
01:21:30.051 : en:Fire Sale
01:25:52.063 : en:For Being a Hero
01:32:45.101 : en:Blackout
01:36:50.012 : en:Fear of Flying
01:39:47.523 : en:The Warlock
01:45:02.254 : en:Problem in Tower Seven
01:46:22.459 : en:The Killer Acrobat
01:51:21.174 : en:The Substitute Driver
01:56:38.700 : en:Engage and Destroy
01:58:12.543 : en:One Minute
02:01:44.213 : en:Yippee Ki Yay...
Скриншоты:
       
Время раздачи: 24/7

Крепкий орешек: Хороший день, чтобы умереть (Extended Cut)

Крепкий орешек: Хороший день, чтобы умереть / A Good Day to Die Hard (Extended Cut)-Оригинальное название: A Good Day to Die Hard
Год выпуска: 2013
Жанр: Боевик, Триллер
Производство: США
Описание фильма:
Джон МакКлейн прибывает в Москву, чтобы вызволить из тюрьмы своего непредсказуемого сына, но холодная голова и железные мускулы вязнут в паутине российской действительности. Дело, в которое влип МакКлейн-младший, оказывается настолько «опасной трясиной», что отцу и сыну, чтобы выжить и в очередной раз спасти мир, приходится объединить свои усилия, забыв прежние, казалось бы, непреодолимые разногласия.
Режиссер: Джон Мур
Актеры: Брюс Уиллис, Джай Кортни, Себастьян Кох, Юлия Снигирь, Радивойе Буквич, Сергей Колесников, Мэри Элизабет Уинстэд, Коул Хаузер, Амори Ноласко, Роман Лукнар
Продолжительность: 01:41:11
Качество видео: BDRip
Перевод: Дублированный
Язык субтитров: Rus (полные), Eng (полные)
Вид субтитров: Вшитые

Видеокодек: MPEG-4 AVC/H.264
Битрейт видео: ~10000 kb/s
Размер кадра: 1280*696
Аудио 1 Русский: AC3 5.1, 640 kb/s
Аудио 2 Английский: AC3 5.1, 640 kb/s
Сэмпл: Ссылка

MI

Общее
Уникальный идентификатор : 242010742610681641685405521005784899353 (0xB61192D7D33CC1A289C9E419B8F89F19)
Полное имя : Y:\Фильмы\Крепкий орешек\Крепкий орешек 5.mkv
Формат : Matroska
Версия формата : Version 4 / Version 2
Размер файла : 7,95 Гбайт
Продолжительность : 1 ч. 41 м.
Общий поток : 11,3 Мбит/сек
Дата кодирования : UTC 2014-02-23 11:08:32
Программа кодирования : mkvmerge v6.7.0 ('Back to the Ground') 64bit built on Jan 8 2014 15:10:52
Библиотека кодирования : libebml v1.3.0 + libmatroska v1.4.1
Видео
Идентификатор : 1
Формат : AVC
Формат/Информация : Advanced Video Codec
Профиль формата : [url=mailto:High@L4.1]High@L4.1[/url]
Параметр CABAC формата : Да
Параметр ReFrames формата : 9 кадров
Идентификатор кодека : V_MPEG4/ISO/AVC
Продолжительность : 1 ч. 41 м.
Битрейт : 10000 Кбит/сек
Ширина : 1280 пикселей
Высота : 696 пикселей
Соотношение сторон : 1,85:1
Режим частоты кадров : Постоянный
Частота кадров : 59,880 кадров/сек
Частота кадров в оригинале : 59,940 кадров/сек
Цветовое пространство : YUV
Субдискретизация насыщенности : 4:2:0
Битовая глубина : 8 бит
Тип развёртки : Прогрессивная
Бит/(Пиксели*Кадры) : 0.187
Размер потока : 6,89 Гбайт (87%)
Библиотека кодирования : x264 core 130 r2273 b3065e6
Настройки программы : cabac=1 / ref=9 / deblock=1:-1:-1 / analyse=0x3:0 / me=umh / subme=9 / psy=1 / psy_rd=1.00:0.10 / mixed_ref=1 / me_range=24 / chroma_me=0 / trellis=1 / 8x8dct=1 / cqm=0 / deadzone=21,11 / fast_pskip=0 / chroma_qp_offset=-3 / threads=6 / lookahead_threads=1 / sliced_threads=0 / nr=0 / decimate=0 / interlaced=0 / bluray_compat=0 / constrained_intra=0 / bframes=6 / b_pyramid=2 / b_adapt=2 / b_bias=0 / direct=3 / weightb=1 / open_gop=0 / weightp=2 / keyint=250 / keyint_min=25 / scenecut=40 / intra_refresh=0 / rc=2pass / mbtree=0 / bitrate=10000 / ratetol=1.0 / qcomp=0.60 / qpmin=0 / qpmax=69 / qpstep=4 / cplxblur=20.0 / qblur=0.5 / ip_ratio=1.40 / pb_ratio=1.30 / aq=1:0.90
Язык : English
Default : Да
Forced : Нет
Аудио #1
Идентификатор : 2
Формат : AC-3
Формат/Информация : Audio Coding 3
Расширение режима : CM (complete main)
Параметр Endianness формата : Big
Идентификатор кодека : A_AC3
Продолжительность : 1 ч. 41 м.
Вид битрейта : Постоянный
Битрейт : 640 Кбит/сек
Каналы : 6 каналов
Расположение каналов : Front: L C R, Side: L R, LFE
Частота : 48,0 КГц
Битовая глубина : 16 бит
Метод сжатия : С потерями
Размер потока : 463 Мбайт (6%)
Заголовок : Dub
Язык : Russian
Default : Да
Forced : Нет
Аудио #2
Идентификатор : 3
Формат : AC-3
Формат/Информация : Audio Coding 3
Расширение режима : CM (complete main)
Параметр Endianness формата : Big
Идентификатор кодека : A_AC3
Продолжительность : 1 ч. 41 м.
Вид битрейта : Постоянный
Битрейт : 640 Кбит/сек
Каналы : 6 каналов
Расположение каналов : Front: L C R, Side: L R, LFE
Частота : 48,0 КГц
Битовая глубина : 16 бит
Метод сжатия : С потерями
Размер потока : 463 Мбайт (6%)
Заголовок : Original
Язык : English
Default : Нет
Forced : Нет
Текст #1
Идентификатор : 4
Формат : UTF-8
Идентификатор кодека : S_TEXT/UTF8
Идентификатор кодека/Информация : UTF-8 Plain Text
Заголовок : Full
Язык : Russian
Default : Нет
Forced : Нет
Текст #2
Идентификатор : 5
Формат : UTF-8
Идентификатор кодека : S_TEXT/UTF8
Идентификатор кодека/Информация : UTF-8 Plain Text
Заголовок : Full
Язык : English
Default : Нет
Forced : Нет
Меню
00:00:00.000 : en:Chapter 1
00:02:45.999 : en:Chapter 2
00:05:02.135 : en:Chapter 3
00:09:36.242 : en:Chapter 4
00:12:13.898 : en:Chapter 5
00:15:25.549 : en:Chapter 6
00:18:02.998 : en:Chapter 7
00:22:31.349 : en:Chapter 8
00:28:31.376 : en:Chapter 9
00:32:28.863 : en:Chapter 10
00:36:05.913 : en:Chapter 11
00:39:53.641 : en:Chapter 12
00:42:20.621 : en:Chapter 13
00:46:04.719 : en:Chapter 14
00:50:30.986 : en:Chapter 15
00:53:21.656 : en:Chapter 16
00:57:05.546 : en:Chapter 17
01:01:46.619 : en:Chapter 18
01:05:03.649 : en:Chapter 19
01:10:24.052 : en:Chapter 20
01:14:04.981 : en:Chapter 21
01:17:50.415 : en:Chapter 22
01:20:18.021 : en:Chapter 23
01:24:05.832 : en:Chapter 24
01:26:17.921 : en:Chapter 25
01:28:05.488 : en:Chapter 26
01:32:37.801 : en:Chapter 27
01:35:24.927 : en:Chapter 28
Скриншоты:
       
Время раздачи: 24/7
-Скриншоты:
         

_________________

Создавая "Новую папку", не считайте себя Создателем - это право Вам дано Админом


Вне форума [Профиль] [ЛС]
Показать сообщения:    
Ответить на тему

Текущее время: Сегодня 23:36

Часовой пояс: GMT + 3



Вы не можете начинать темы
Вы не можете отвечать на сообщения
Вы не можете редактировать свои сообщения
Вы не можете удалять свои сообщения
Вы не можете голосовать в опросах
Вы не можете прикреплять файлы к сообщениям
Вы не можете скачивать файлы