Сегодня идет свободное скачивание без начисления Download

Симпсоны / The Simpsons / Сезон: 16 / Серии: 21 из 21 (Мэтт Гроунинг / Matt Groening) [2004, мультсериал, HDRip] MVO (2х2) + Eng

Ответить на тему
 
Автор
Сообщение

Omen ®

Стаж: 5 лет

Сообщений: 190529

Торрент-статистика

Пост 22-Фев-2014 11:41

[Цитировать]

Симпсоны / The Simpsons
Страна: США
Жанр: мультсериал
Продолжительность: 21~00:22:00
Год выпуска: 2004
Перевод: Профессиональный (многоголосый закадровый), (2х2)
Русские субтитры: нет
Режиссёр: Мэтт Гроунинг / Matt Groening
Роли озвучивали: Дэн Кастелланета, Джули Кавнер, Нэнси Картрайт, Ярдли Смит, Хэнк Азария
Описание: Мультфильм — пародия на американский уклад жизни. Cемейство Симпсонов состоит из пяти членов: папаша Гомер, мать семейства Мардж, их дочери Лиза и Мэгги и несносный подросток Барт.
Список серий:
01. Treehouse of Horror XV
02. All's Fair in Oven War
03. Sleeping with the Enemy
04. She Used to Be My Girl
05. Fat Man and Little Boy
06. Midnight Rx
07. Mommie Beerest
08. Homer and Ned's Hail Mary Pass
09. Pranksta Rap
10. There's Something About Marrying
11. On a Clear Day I Can't See My Sister
12. Goo Goo Gai Pan
13. Mobile Homer
14. The Seven-Beer Snitch
15. Future-Drama
16. Don't Fear the Roofer
17. The Heartbroke Kid
18. A Star Is Torn
19. Thank God, It's Doomsday
20. Home Away From Homer
21. The Father, the Son, and the Holy Guest Star
Альтернативные раздачи сезона
Качество: HDRip
Формат: AVI
Видео: XviD, 1200 Кбит/с, 720х544, 23.976 fps
Аудио: Русский AC3, 48 kHz, 2.0 ch, ~192.00 kbps
Аудио 2: Английский AC3, 48 kHz, 2.0 ch, ~192.00 kbps
Субтитры: нет

Подробные технические данные

Simpsony.16.sezon\S16E21.The Father, The Son, and The Holy Guest Star.aviFormat : AVIFormat/Info : Audio Video InterleaveFile size : 265 MiBDuration : 22mn 2sOverall bit rate : 1 684 KbpsWriting application : XviD4PSP 6.0 / 54.29.105
VideoID : 0Format : MPEG-4 VisualFormat profile : Advanced Simple@L5Format settings, BVOP : 1Format settings, QPel : NoFormat settings, GMC : No warppointsFormat settings, Matrix : Default (H.263)Codec ID : XVIDCodec ID/Hint : XviDDuration : 22mn 2sBit rate : 1 283 KbpsWidth : 720 pixelsHeight : 544 pixelsDisplay aspect ratio : 4:3Frame rate : 23.976 fpsColor space : YUVChroma subsampling : 4:2:0Bit depth : 8 bitsScan type : ProgressiveCompression mode : LossyBits/(Pixel*Frame) : 0.137Stream size : 202 MiB (76%)Writing library : XviD 64
Audio #1ID : 1Format : AC-3Format/Info : Audio Coding 3Mode extension : CM (complete main)Format settings, Endianness : BigCodec ID : 2000Duration : 22mn 2sBit rate mode : ConstantBit rate : 192 KbpsChannel(s) : 2 channelsChannel positions : Front: L RSampling rate : 48.0 KHzBit depth : 16 bitsCompression mode : LossyStream size : 30.3 MiB (11%)Alignment : Aligned on interleavesInterleave, duration : 32 ms (0.77 video frame)Title :
Audio #2ID : 2Format : AC-3Format/Info : Audio Coding 3Mode extension : CM (complete main)Format settings, Endianness : BigCodec ID : 2000Duration : 22mn 2sBit rate mode : ConstantBit rate : 192 KbpsChannel(s) : 2 channelsChannel positions : Front: L RSampling rate : 48.0 KHzBit depth : 16 bitsCompression mode : LossyStream size : 30.3 MiB (11%)Alignment : Aligned on interleavesInterleave, duration : 32 ms (0.77 video frame)Title : Original

Скриншоты

Вне форума [Профиль] [ЛС]
Показать сообщения:    
Ответить на тему

Текущее время: Сегодня 10:43

Часовой пояс: GMT + 3



Вы не можете начинать темы
Вы не можете отвечать на сообщения
Вы не можете редактировать свои сообщения
Вы не можете удалять свои сообщения
Вы не можете голосовать в опросах
Вы не можете прикреплять файлы к сообщениям
Вы не можете скачивать файлы