Сегодня идет свободное скачивание без начисления Download

Симпсоны / The Simpsons / Сезон: 23 / Серии: 22 из 22 (Мэтт Гроунинг / Matt Groening) [2012, мультсериал, WEBDL-Rip] MVO (2Х2) + Eng

Ответить на тему
 
Автор
Сообщение

Omen ®

Стаж: 5 лет

Сообщений: 190529

Торрент-статистика

Пост 13-Фев-2014 20:00

[Цитировать]

Симпсоны / The Simpsons
Страна: США
Жанр: мультсериал
Продолжительность: 22~00:22:00
Год выпуска: 2012
Перевод: Профессиональный (многоголосый закадровый 2Х2)
Русские субтитры: нет
Режиссёр: Мэтт Гроунинг / Matt Groening
Роли озвучивали: Дэн Кастелланета, Джули Кавнер, Нэнси Картрайт, Ярдли Смит, Хэнк Азария
Описание: Мультфильм — пародия на американский уклад жизни. Cемейство Симпсонов состоит из пяти членов: папаша Гомер, мать семейства Мардж, их дочери Лиза и Мэгги и несносный подросток Барт.
Список серий:
S23E01. The.Falcon.and.the.D'Ohman
S23E02. Bart.Stops.to.Smell.the.Roosevelt
S23E03. Treehouse.of.Horror.Xxii
S23E04. Replaceable.You
S23E05. The.Food.Wife
S23E06. The.Book.Job
S23E07. The.Man.in.the.Blue.Flannel.Pants
S23E08. The.Ten-Per-Cent.Solution
S23E09. Holidays.of.Future.Passed
S23E10. Politically.Inept.with.Homer.Simpson
S23E11. The.D'Oh-cial.Network
S23E12. Moes.Goes.From.Rags.to.Riches
S23E13. The.Daughter.also.Rises
S23E14. Long.Last.Leave
S23E15. Exit.through.the.Kwik-E.Mart
S23E16. How.I.Wet.Your.Mother
S23E17. Them.Robot
S23E18. Beware.My.Cheating.Bart
S23E19. A.Totally.Fun.Thing.That.Bart.Will.Never.Do.Again
S23E20. The.Spy.Who.Learned.Me
S23E21. Ned.N.Ednas.Blend.Agenda
S23E22. Lisa.Goes.Gaga
Альтернативные раздачи сезона
Качество: WEBDL-Rip
Формат: AVI
Видео: XviD, 1200 Кбит/с, 720х400, 23.976 fps
Аудио: Русский AC3, 48 kHz, 2.0 ch, ~192.00 kbps
Аудио 2: Английский AC3, 48.0 kHz, 5.1 ch, ~ 384 kbps
Субтитры: отсутствуют

Подробные технические данные

Simpsony.23.sezon\S23E18.Beware.My.Cheating.Bart.aviFormat : AVIFormat/Info : Audio Video InterleaveFile size : 271 MiBDuration : 21mn 41sOverall bit rate : 1 745 KbpsWriting application : XviD4PSP 6.0 / 54.29.105
VideoID : 0Format : MPEG-4 VisualFormat profile : Advanced Simple@L5Format settings, BVOP : 3Format settings, QPel : NoFormat settings, GMC : No warppointsFormat settings, Matrix : Default (H.263)Codec ID : XVIDCodec ID/Hint : XviDDuration : 21mn 41sBit rate : 1 152 KbpsWidth : 720 pixelsHeight : 400 pixelsDisplay aspect ratio : 16:9Frame rate : 23.976 fpsColor space : YUVChroma subsampling : 4:2:0Bit depth : 8 bitsScan type : ProgressiveCompression mode : LossyBits/(Pixel*Frame) : 0.167Stream size : 179 MiB (66%)Writing library : XviD 1.2.1 (UTC 2008-12-04)
Audio #1ID : 1Format : AC-3Format/Info : Audio Coding 3Mode extension : CM (complete main)Format settings, Endianness : BigCodec ID : 2000Duration : 21mn 41sBit rate mode : ConstantBit rate : 192 KbpsChannel(s) : 2 channelsChannel positions : Front: L RSampling rate : 48.0 KHzBit depth : 16 bitsCompression mode : LossyStream size : 29.8 MiB (11%)Alignment : Aligned on interleavesInterleave, duration : 32 ms (0.77 video frame)
Audio #2ID : 2Format : AC-3Format/Info : Audio Coding 3Mode extension : CM (complete main)Format settings, Endianness : BigCodec ID : 2000Duration : 21mn 41sBit rate mode : ConstantBit rate : 384 KbpsChannel(s) : 6 channelsChannel positions : Front: L C R, Side: L R, LFESampling rate : 48.0 KHzBit depth : 16 bitsCompression mode : LossyStream size : 59.6 MiB (22%)Alignment : Aligned on interleavesInterleave, duration : 32 ms (0.77 video frame)Title : Original

Скриншоты

Вне форума [Профиль] [ЛС]
Показать сообщения:    
Ответить на тему

Текущее время: Сегодня 00:58

Часовой пояс: GMT + 3



Вы не можете начинать темы
Вы не можете отвечать на сообщения
Вы не можете редактировать свои сообщения
Вы не можете удалять свои сообщения
Вы не можете голосовать в опросах
Вы не можете прикреплять файлы к сообщениям
Вы не можете скачивать файлы