Today is a free download without charge Download

Олимпийские игры 2014. Фигурное катание. Спортивные пары . Произвольная программа (2014.02.12) HDTVRip

Reply to topic
 
Author
Message

Varius ®

Gender:

Longevity: 9 years 8 months

Posts: 2418

Location: Hell

Торрент-статистика

Post 13-Feb-2014 04:15

[Quote]

Олимпийские игры 2014. Фигурное катание. Спортивные пары . Произвольная программа (2014.02.12) HDTVRip - Режиссер / Телекомпания: СПОРТ 1
Русское название: Олимпийские игры 2014
Год выпуска: 2014
Жанр: Спорт
Выпущено: Россия, СПОРТ 1
Описание:
XXII Зимние Олимпийские игры. Фигурное катание. Спортивные пары . Произвольная программа
Ведущие: Александр Васильев, Алексей Дмитриев
Продолжительность: 00:42:30 + 00:40:13 + 00:39:32 + 00:53:16
Видеокодек: XviD
Качество видео: HDTVRip
Битрейт видео: ~1900 Кбит/сек
Размер кадра: 704 x 400
Аудиокодек: MP3, 2.0ch.
Битрейт аудио: 192 kb/s

MediaInfo:

Формат : AVI
Формат/Информация : Audio Video Interleave
Размер файла : 621 Мбайт
Продолжительность : 42 м.
Общий поток : 2041 Кбит/сек
Программа кодирования : XviD4PSP 6.0 / 54.29.105
Видео
Идентификатор : 1
Формат : MPEG-4 Visual
Профиль формата : Advanced Simple@L5
Параметр BVOP формата : 2
Параметр QPel формата : Нет
Параметр GMC формата : Без точки перехода
Параметр матрицы формата : Default (H.263)
Идентификатор кодека : XVID
Идентификатор кодека/Подсказка : XviD
Продолжительность : 42 м.
Битрейт : 1901 Кбит/сек
Ширина : 704 пикселя
Высота : 400 пикселей
Соотношение сторон : 16:9
Частота кадров : 25,000 кадров/сек
Цветовое пространство : YUV
Субдискретизация насыщенности : 4:2:0
Битовая глубина : 8 бит
Тип развёртки : Прогрессивная
Метод сжатия : С потерями
Бит/(Пиксели*Кадры) : 0.270
Размер потока : 578 Мбайт (93%)
Библиотека кодирования : XviD 64
Аудио
Идентификатор : 0
Формат : MPEG Audio
Версия формата : Version 1
Профиль формата : Layer 3
Режим : Joint stereo
Расширение режима : MS Stereo
Идентификатор кодека : 55
Идентификатор кодека/Подсказка : MP3
Продолжительность : 42 м.
Вид битрейта : Постоянный
Битрейт : 128 Кбит/сек
Каналы : 2 канала
Частота : 48,0 КГц
Метод сжатия : С потерями
Размер потока : 38,9 Мбайт (6%)
Выравнивание : Соединение по промежуткам
Продолжительность промежутка : 40 мс. (1,00 видеокадр)
Формат : AVI
Формат/Информация : Audio Video Interleave
Размер файла : 587 Мбайт
Продолжительность : 40 м.
Общий поток : 2040 Кбит/сек
Программа кодирования : XviD4PSP 6.0 / 54.29.105
Видео
Идентификатор : 1
Формат : MPEG-4 Visual
Профиль формата : Advanced Simple@L5
Параметр BVOP формата : 2
Параметр QPel формата : Нет
Параметр GMC формата : Без точки перехода
Параметр матрицы формата : Default (H.263)
Идентификатор кодека : XVID
Идентификатор кодека/Подсказка : XviD
Продолжительность : 40 м.
Битрейт : 1899 Кбит/сек
Ширина : 704 пикселя
Высота : 400 пикселей
Соотношение сторон : 16:9
Частота кадров : 25,000 кадров/сек
Цветовое пространство : YUV
Субдискретизация насыщенности : 4:2:0
Битовая глубина : 8 бит
Тип развёртки : Прогрессивная
Метод сжатия : С потерями
Бит/(Пиксели*Кадры) : 0.270
Размер потока : 546 Мбайт (93%)
Библиотека кодирования : XviD 64
Аудио
Идентификатор : 0
Формат : MPEG Audio
Версия формата : Version 1
Профиль формата : Layer 3
Режим : Joint stereo
Расширение режима : MS Stereo
Идентификатор кодека : 55
Идентификатор кодека/Подсказка : MP3
Продолжительность : 40 м.
Вид битрейта : Постоянный
Битрейт : 128 Кбит/сек
Каналы : 2 канала
Частота : 48,0 КГц
Метод сжатия : С потерями
Размер потока : 36,8 Мбайт (6%)
Выравнивание : Соединение по промежуткам
Продолжительность промежутка : 40 мс. (1,00 видеокадр)
Скриншоты:                    

_________________

Создавая "Новую папку", не считайте себя Создателем - это право Вам дано Админом


Other forum [Profile] [PM]
Display posts from previous:    
Reply to topic

The time now is: Today 00:50

All times are GMT + 3 Hours



You cannot post new topics in this forum
You cannot reply to topics in this forum
You cannot edit your posts in this forum
You cannot delete your posts in this forum
You cannot vote in polls in this forum
You cannot attach files in this forum
You cannot download files in this forum