Today is a free download without charge Download

Олимпийские игры 2014. Хоккей. Хоккей. Мужчины. Группа С. Латвия - Швейцария (2014.02.12) SATRip

Reply to topic
 
Author
Message

Varius ®

Gender:

Longevity: 11 years

Posts: 2428

Location: Hell

Торрент-статистика

Post 13-Feb-2014 04:14

[Quote]

Олимпийские игры 2014. Хоккей. Хоккей. Мужчины. Группа С. Латвия - Швейцария (2014.02.12) SATRip - Режиссер / Телекомпания: Россия
Русское название: Олимпийские игры 2014
Год выпуска: 2014
Жанр: Спорт
Ведущие: Роман Скворцов, Сергей Гимаев
Описание:
По составу участников группы "С" сборные Швейцарии и Латвии предварительно записаны в аутсайдеры. В большой мере это касается прибалтийской дружину. Латыши участвовали на прошлой и позапрошлой Олимпиаде. Результаты пусть и не впечатляют, но уже сам факт попадания на этот турнир говорит о многом. Если говорить о составе, то здесь безусловно акцент идет на игроков рижского "Динамо". Но, а во главе сборной стоит несомненно звездный ветеран Сандис Озолиньш, которому, к слову, и было доверено быть флагоносцем своей страны. В принципе, заявка составлена очень интересно, заметен сплав опыта и молодости. Есть проблемы во вратарской линии. Гудлевскис и Масальскис сейчас находятся не в лучших игровых кондициях, но рассчитывать на других не приходится. Если не брать в учет Озолиньша, то практически нет защитника с хорошим первым пасом, да и атакующего оборонительного игрока для времени в большинстве явно будет не хватать. Всё это говорит о том, что возможно у латвийского коллектива будут проблемы с заброшенными шайбами, но главная задача - это постараться сдержать атаки соперников, а вот с этим могут возникнуть проблемы. Сборная Швейцарии на последнем мировом мундиале наделал много шума и заслуженно завоевала серебряные медали. Канадский специалист Шон Симпсон смог построить тот стиль игры, который схож с североамериканским, но при этом европейцы добавили в эту прямолинейность свою изысканность и мысль, что и дало высокий результат. Если пройтись по линиям, то приезд заокеанских игроков, конечно, добавит колорита и тем самым добавит мощи. Йонас Хиллер, защищающий стан "уток", будет естественно первым номером и тут другого не дано. Неплохой защитный десант из НХЛ прибыл усилить сборную. Здесь и Диас, и Штрайт, и Йоси, и Вебер. В атаке преобладают в основном игроки местного первенства, но есть и энхэловцы - Брюннер, Нидеррайтер, которые в своих клубах далеко не затерялись. Швейцарцы имеют очень ровный состав, с хорошими исполнителями и вдобавок тренерская грамотная работа канадского рулевого может вылиться в хороший итоговый результат. А пока можно сказать, что альпийская сборная задачу минимум должна выполнить без проблем - выход в четвертьфинал.
Продолжительность: 01:52:51
Видеокодек: XviD
Качество видео: SATRip
Битрейт видео: ~1800 kb/s
Размер кадра: 704 x 448
Аудиокодек: MP3, 2.0ch.
Битрейт аудио: 128 kb/s

MediaInfo:

Формат : AVI
Формат/Информация : Audio Video Interleave
Размер файла : 1,53 Гбайт
Продолжительность : 1 ч. 52 м.
Общий поток : 1936 Кбит/сек
Библиотека кодирования : VirtualDub build 32507/release
Видео
Идентификатор : 0
Формат : MPEG-4 Visual
Профиль формата : Advanced Simple@L5
Параметр BVOP формата : 2
Параметр QPel формата : Нет
Параметр GMC формата : Без точки перехода
Параметр матрицы формата : Default (H.263)
Режим смешивания : Сжатый битовый поток
Идентификатор кодека : XVID
Идентификатор кодека/Подсказка : XviD
Продолжительность : 1 ч. 52 м.
Битрейт : 1799 Кбит/сек
Ширина : 704 пикселя
Высота : 448 пикселей
Соотношение сторон : 1,571
Частота кадров : 25,000 кадров/сек
Цветовое пространство : YUV
Субдискретизация насыщенности : 4:2:0
Битовая глубина : 8 бит
Тип развёртки : Прогрессивная
Метод сжатия : С потерями
Бит/(Пиксели*Кадры) : 0.228
Размер потока : 1,42 Гбайт (93%)
Библиотека кодирования : XviD 1.1.2 (UTC 2006-11-01)
Аудио
Идентификатор : 1
Формат : MPEG Audio
Версия формата : Version 1
Профиль формата : Layer 3
Режим : Joint stereo
Расширение режима : MS Stereo
Идентификатор кодека : 55
Идентификатор кодека/Подсказка : MP3
Продолжительность : 1 ч. 52 м.
Вид битрейта : Постоянный
Битрейт : 128 Кбит/сек
Каналы : 2 канала
Частота : 48,0 КГц
Метод сжатия : С потерями
Размер потока : 103 Мбайт (7%)
Выравнивание : Разделение по промежуткам
Продолжительность промежутка : 40 мс. (1,00 видеокадр)
Время предзагрузки промежутка : 500 мс.
Скриншоты:          

_________________

Создавая "Новую папку", не считайте себя Создателем - это право Вам дано Админом


Other forum [Profile] [PM]
Display posts from previous:    
Reply to topic

The time now is: Today 12:51

All times are GMT + 3 Hours



You cannot post new topics in this forum
You cannot reply to topics in this forum
You cannot edit your posts in this forum
You cannot delete your posts in this forum
You cannot vote in polls in this forum
You cannot attach files in this forum
You cannot download files in this forum