Today is a free download without charge Download

Олимпийские игры 2014. Дневник Олимпиады. Выпуск 9 (2014.02.12) HDTVRip

Reply to topic
 
Author
Message

Varius ®

Gender:

Longevity: 11 years

Posts: 2428

Location: Hell

Торрент-статистика

Post 13-Feb-2014 04:08

[Quote]

Олимпийские игры 2014. Дневник Олимпиады. Выпуск 9 (2014.02.12) HDTVRip - Режиссер / Телекомпания: Россия HD
Русское название: Олимпийские игры 2014. Дневник Олимпиады
Год выпуска: 2014
Жанр: Спорт
Выпущено: Россия, Россия HD
Описание:
С 7 по 23 февраля город Сочи примет Зимние Олимпийские игры. Это станет главным спортивным событием года в жизни нашей страны. Нас ожидает масса ярких эмоций и впечатлений, восторг и радость от побед. Миллионы болельщиков будут следить за баталиями, которые будут проходить в 15 олимпийских видах спорта на спортивных аренах в южном городе.
Ведущие: Анастасия Чернобровина, Дмитрий Губерниев
Продолжительность: 00:31:00
Видеокодек: XVID
Качество видео: HDTVRip
Битрейт видео: ~1900 kb/s
Размер кадра: 720 x 400
Аудиокодек: AC-3, 2.0ch.
Битрейт аудио: 192 kb/s

MediaInfo:

Формат : AVI
Формат/Информация : Audio Video Interleave
Размер файла : 465 Мбайт
Продолжительность : 31 м.
Общий поток : 2098 Кбит/сек
Библиотека кодирования : VirtualDub build 32507/release
Видео
Идентификатор : 0
Формат : MPEG-4 Visual
Профиль формата : Advanced Simple@L5
Параметр BVOP формата : 2
Параметр QPel формата : Нет
Параметр GMC формата : Без точки перехода
Параметр матрицы формата : Default (H.263)
Режим смешивания : Сжатый битовый поток
Идентификатор кодека : XVID
Идентификатор кодека/Подсказка : XviD
Продолжительность : 31 м.
Битрейт : 1896 Кбит/сек
Ширина : 720 пикселей
Высота : 400 пикселей
Соотношение сторон : 16:9
Частота кадров : 25,000 кадров/сек
Цветовое пространство : YUV
Субдискретизация насыщенности : 4:2:0
Битовая глубина : 8 бит
Тип развёртки : Прогрессивная
Метод сжатия : С потерями
Бит/(Пиксели*Кадры) : 0.263
Размер потока : 421 Мбайт (90%)
Библиотека кодирования : XviD 1.1.2 (UTC 2006-11-01)
Аудио
Идентификатор : 1
Формат : AC-3
Формат/Информация : Audio Coding 3
Расширение режима : CM (complete main)
Идентификатор кодека : 2000
Продолжительность : 31 м.
Вид битрейта : Постоянный
Битрейт : 192 Кбит/сек
Каналы : 2 канала
Расположение каналов : Front: L R
Частота : 48,0 КГц
Битовая глубина : 16 бит
Метод сжатия : С потерями
Размер потока : 42,6 Мбайт (9%)
Выравнивание : Соединение по промежуткам
Продолжительность промежутка : 40 мс. (1,00 видеокадр)
Время предзагрузки промежутка : 512 мс.
Скриншоты:          Время раздачи: 24/7. До первых 5 скачавших.
Rip by olegka7373

_________________

Создавая "Новую папку", не считайте себя Создателем - это право Вам дано Админом


Other forum [Profile] [PM]
Display posts from previous:    
Reply to topic

The time now is: Today 12:38

All times are GMT + 3 Hours



You cannot post new topics in this forum
You cannot reply to topics in this forum
You cannot edit your posts in this forum
You cannot delete your posts in this forum
You cannot vote in polls in this forum
You cannot attach files in this forum
You cannot download files in this forum