Today is a free download without charge Download

Олимпийские игры 2014. Церемония открытия (Спорт)(Первый канал.2014.02.07) HDTV [H.264/1080i] [Первый канал HD-DD5.1]

Reply to topic
 
Author
Message

KirovSOFT ®

Gender:

Longevity: 7 years 8 months

Posts: 998

Location: Кировская область -Оричи

Торрент-статистика

Post 08-Feb-2014 13:42

[Quote]

Олимпийские игры 2014. Церемония открытия - Режиссер / Телекомпания: Первый канал HD
Русское название: Олимпийские игры 2014. Церемония открытия
Год выпуска: 2014
Жанр: Спорт
Выпущено: Россия, НТВ Спорт
Описание:
Церемония состоялась 7 февраля 2014 года на Олимпийском стадионе «Фишт», в 20:14 по московскому времени. Всего в массовых постановочных сценах Церемонии открытия, включая танцевальные, балетные, акробатические и цирковые номера, приняли участие более 3000 молодых талантов из числа учащихся высших и средних учебных заведений, а также профессиональных творческих коллективов. Помогали в организации церемоний на площадках, за кулисами и на территории Олимпийского парка 2000 волонтеров «Сочи 2014». В начале Церемонии открытия показано несколько ярких видеофрагментов о России. После этого Президент России приветствовал зрителей Церемонии, и под звуки российского гимна состоится поднятие флага страны-хозяйки Игр-2014. Впервые в истории церемоний Олимпийских игр был изменен традиционный проход атлетов во время парада наций. Cпортсмены поднимались на сцену по специальной 48-метровой рампе, расположенной в центре стадиона. В параде наций приняли участие представители 88 делегаций. По традиции, Церемония открытия завершилась зажжением чаши Олимпийского огня. Театрализованная часть Церемонии представила основные этапы исторического развития России – от зарождения государственности до современности. Шоу стало самым высокотехнологичным за всю историю церемоний. Всего для реализации проведения Церемонии открытия XXII Олимпийских зимних игр 2014 года задействовано более 12 000 человек. Церемонию Открытия увенчал масштабный фейерверк из 3 500 залпов.
Ведущие: Анатолий Максимов и Кирилл Набутов!
Продолжительность: 02:37:21
Видеокодек: AVC
Качество видео: HDTV
Битрейт видео: ~11,0 Мбит/сек
Размер кадра: 1920 x 1080
Аудиокодек: AC-3, 6.0ch.
Битрейт аудио: 384 kb/s

MediaInfo:

Формат : MPEG-TS
Размер файла : 13,2 Гбайт
Продолжительность : 2 ч. 37 м.
Общий поток : 12,0 Мбит/сек
Видео
Идентификатор : 81 (0x51)
Идентификатор меню : 1 (0x1)
Формат : AVC
Формат/Информация : Advanced Video Codec
Профиль формата : [url=mailto:High@L4.0]High@L4.0[/url]
Параметр CABAC формата : Да
Параметр ReFrames формата : 3 кадра
Идентификатор кодека : 27
Продолжительность : 2 ч. 37 м.
Битрейт : 11,0 Мбит/сек
Ширина : 1920 пикселей
Высота : 1080 пикселей
Соотношение сторон : 16:9
Частота кадров : 25,000 кадров/сек
Стандарт вещания : Component
Цветовое пространство : YUV
Субдискретизация насыщенности : 4:2:0
Битовая глубина : 8 бит
Тип развёртки : Чересстрочная
Порядок развёртки : Верхнее поле первое
Бит/(Пиксели*Кадры) : 0.212
Размер потока : 12,1 Гбайт (92%)
Основные цвета : BT.709-5, BT.1361, IEC 61966-2-4, SMPTE RP177
Характеристики трансфера : BT.709-5, BT.1361
Коэффициенты матрицы : BT.709-5, BT.1361, IEC 61966-2-4 709, SMPTE RP177
Аудио
Идентификатор : 85 (0x55)
Идентификатор меню : 1 (0x1)
Формат : AC-3
Формат/Информация : Audio Coding 3
Расширение режима : CM (complete main)
Идентификатор кодека : 6
Продолжительность : 2 ч. 37 м.
Вид битрейта : Постоянный
Битрейт : 384 Кбит/сек
Каналы : 6 каналов
Расположение каналов : Front: L C R, Side: L R, LFE
Частота : 48,0 КГц
Битовая глубина : 16 бит
Метод сжатия : С потерями
Размер потока : 432 Мбайт (3%)
Язык : Russian
Текст
Идентификатор : 82 (0x52)-888
Идентификатор меню : 1 (0x1)
Формат : Teletext Subtitle
Язык : Russian
Скриншоты:                    

_________________
Other forum [Profile] [PM]
Display posts from previous:    
Reply to topic

The time now is: Today 03:52

All times are GMT + 3 Hours



You cannot post new topics in this forum
You cannot reply to topics in this forum
You cannot edit your posts in this forum
You cannot delete your posts in this forum
You cannot vote in polls in this forum
You cannot attach files in this forum
You cannot download files in this forum