Сегодня идет свободное скачивание без начисления Download

Футурама / Futurama / Сезон: 7 / Серии: 1-13 из 26 (Мэтт Гроунинг / Matt Groening) [2012, Мультфильм, фантастика, комедия, BDRip 1080p] DVO (2х2) + DVO (Кубик в Кубе) + Mvo (LostFilm) + Mvo (VO-production) Rus Sub (НФСФ) Eng Sub

Ответить на тему
 
Автор
Сообщение

Omen ®

Стаж: 4 года 10 месяцев

Сообщений: 190643

Торрент-статистика

Пост 04-Фев-2014 05:00

[Цитировать]

Футурама / Futurama
Сезон 7А / Volume 7
Страна: США
Жанр: Фантастика, комедия
Продолжительность: 0:21:38
Год выпуска: 2012
Перевод:
Двухголосый закадровый: 2х2, Кубик в Кубе
Многоголосый закадровый: LostFilm, VO-production
Русские субтитры: НФСФ
Автор идеи: Мэтт Гроунинг / Matt Groening
Режиссёр: Фрэнк Марино, Дуэйн Кэри-Хилл, Стивен Сандовал, Кристалл Чесни-Томпсон...
Роли озвучивали: Билли Уэст, Кейти Сэгал, Джон ДиМаджио, Фил ЛаМарр, Лоурэн Том и др.
Описание: Сериал начинается с того, что разносчик пиццы из Нью-Йорка Филипп Джей Фрай случайно, как это кажется на первый взгляд, был заморожен в криогенной камере ровно в 00 часов 00 минут 00 секунд 1 января 2000 года. Он был разморожен тысячу лет спустя, 31 декабря 2999 года, и обнаружил себя в городе будущего Нью-Нью-Йорке. Знакомясь со своей будущей коллегой Турангой Лилой, Фрай пытается избежать принудительного назначения на работу курьером, кем он и был в прошлой жизни, и внедрения ему карьерного чипа — микросхемы, вшиваемой под кожу и определяющей род занятий своего носителя. Лила, в это время работающая инспектором по раздаче профессий, догоняя Фрая, чтобы вживить ему чип, в результате выслушивания речей Фрая о его прошлой никчемной жизни курьером, отказывается от работы инспектора, которая ей не по душе, и вместе они находят очень дальнего потомка Фрая (его пра-пра-пра-…-пра-внучатого племянника) Хьюберта Фарнсворта — маразматичного 160-летнего гениального ученого-склеротика, который берет их на работу в свою небольшую компанию «Межпланетный экспресс», занимающуюся межгалактическими грузоперевозками, на должность курьера. «Межпланетный экспресс» — это маленький бизнес профессора, окупающий его гениальные, но иногда весьма сомнительные исследования и изобретения.
Доп. информация: Видеоряд, оригинальная звуковая дорожка и английские субтитры из 1080p.BluRay.x264-ROVERS.
Дорожка 2х2 растянута без сохранения тона.
Синхронизация и удаление рекламы дорожки VO-production выполнены без пережатия.
Русские субтитры НФСФ
Спасибо!
Антифеминист - Синхронизация и нормализация дорожек Кубик в Кубе, LostFilm
#Antisnl# , Den.S-92 , Din Winchester - захват вещания 2х2
Студиям Кубик в Кубе, LostFilm, VO-production, телеканалу 2х2.

Список серий:

7ACV01 The Bots and the Bees
7ACV02 A Farewell to Arms
7ACV03 Decision 3012
7ACV04 The Thief of Baghead
7ACV05 Zapp Dingbat
7ACV06 The Butterjunk Effect
7ACV07 The Six Million Dollar Mon
7ACV08 Fun on a Bun
7ACV09 Free Will Hunting
7ACV10 Near-Death Wish
7ACV11 31st Century Fox
7ACV12 Viva Mars Vegas
7ACV13 Naturama
Семпл: Futurama7ACV01-13.1080p.BDrip.4xRus
Качество: BDRip
Формат: MKV
Видео: MPEG4/AVC (x264), 1920x1080, 23,976fps, 5693kbps
Аудио 1: Русский, AC3, 48kHz, 2.0ch, 192kbps 2х2
Аудио 2: Русский, AC3, 48kHz, 2.0ch, 192kbps Кубик в Кубе
Аудио 3: Русский, AC3, 48kHz, 2.0ch, 192kbps LostFilm
Аудио 4: Русский, AC3, 48kHz, 2.0ch, 256kbps VO-production
Аудио 5: Английский, DTS, 48kHz, 5.1ch, 1509kbps Оригинал
Субтитры: Русские НФСФ, английские

Подробные технические данные

ОбщееУникальный идентификатор : 183232949142653982683257322947647365728 (0x89D961E2082649DCBBA13EFAB59FE260)Полное имя : F:\Futurama Volume 7.BDRip1080p.4xRus.Eng\7ACV01-The Bots and the Bees.1080p.BDRip.4xRus.Eng.mkvФормат : MatroskaВерсия формата : Version 2Размер файла : 1,22 ГбайтПродолжительность : 21 м.Общий поток : 8040 Кбит/секДата кодирования : UTC 2014-01-05 21:19:01Программа кодирования : mkvmerge v5.4.0 ('Piper') built on Mar 10 2012 13:34:39Библиотека кодирования : libebml v1.2.3 + libmatroska v1.3.0
ВидеоИдентификатор : 1Формат : AVCФормат/Информация : Advanced Video CodecПрофиль формата : High@L4.1Параметр CABAC формата : ДаПараметр ReFrames формата : 4 кадраИдентификатор кодека : V_MPEG4/ISO/AVCПродолжительность : 21 м.Битрейт : 5693 Кбит/секШирина : 1920 пикселейВысота : 1080 пикселейСоотношение сторон : 16:9Режим частоты кадров : ПостоянныйЧастота кадров : 23,976 кадра/секЦветовое пространство : YUVСубдискретизация насыщенности : 4:2:0Битовая глубина : 8 битТип развёртки : ПрогрессивнаяБит/(Пиксели*Кадры) : 0.115Размер потока : 857 Мбайт (69%)Заголовок : 7ACV01-The Bots and the Bees.BDRip.1080pБиблиотека кодирования : x264 core 129 r2230 1cffe9fНастройки программы : cabac=1 / ref=4 / deblock=1:0:0 / analyse=0x3:0x133 / me=umh / subme=7 / psy=1 / psy_rd=1.00:0.00 / mixed_ref=1 / me_range=16 / chroma_me=1 / trellis=1 / 8x8dct=1 / cqm=0 / deadzone=21,11 / fast_pskip=0 / chroma_qp_offset=-2 / threads=12 / lookahead_threads=2 / sliced_threads=0 / nr=0 / decimate=1 / interlaced=0 / bluray_compat=0 / constrained_intra=0 / bframes=3 / b_pyramid=2 / b_adapt=1 / b_bias=0 / direct=1 / weightb=1 / open_gop=0 / weightp=2 / keyint=250 / keyint_min=23 / scenecut=40 / intra_refresh=0 / rc_lookahead=40 / rc=2pass / mbtree=1 / bitrate=5693 / ratetol=1.0 / qcomp=0.60 / qpmin=0 / qpmax=69 / qpstep=4 / cplxblur=20.0 / qblur=0.5 / ip_ratio=1.40 / aq=1:1.00Язык : EnglishDefault : ДаForced : Нет
Аудио #1Идентификатор : 2Формат : AC-3Формат/Информация : Audio Coding 3Расширение режима : CM (complete main)Параметр Endianness формата : BigИдентификатор кодека : A_AC3Продолжительность : 21 м.Вид битрейта : ПостоянныйБитрейт : 192 Кбит/секКаналы : 2 каналаРасположение каналов : Front: L RЧастота : 48,0 КГцБитовая глубина : 16 битМетод сжатия : С потерямиРазмер потока : 29,7 Мбайт (2%)Заголовок : DD 2.0 2x2Язык : RussianDefault : ДаForced : Нет
Аудио #2Идентификатор : 3Формат : AC-3Формат/Информация : Audio Coding 3Расширение режима : CM (complete main)Параметр Endianness формата : BigИдентификатор кодека : A_AC3Продолжительность : 21 м.Вид битрейта : ПостоянныйБитрейт : 192 Кбит/секКаналы : 2 каналаРасположение каналов : Front: L RЧастота : 48,0 КГцБитовая глубина : 16 битМетод сжатия : С потерямиРазмер потока : 29,7 Мбайт (2%)Заголовок : DD 2.0 Kubik v KubeЯзык : RussianDefault : НетForced : Нет
Аудио #3Идентификатор : 4Формат : AC-3Формат/Информация : Audio Coding 3Расширение режима : CM (complete main)Параметр Endianness формата : BigИдентификатор кодека : A_AC3Продолжительность : 21 м.Вид битрейта : ПостоянныйБитрейт : 192 Кбит/секКаналы : 2 каналаРасположение каналов : Front: L RЧастота : 48,0 КГцБитовая глубина : 16 битМетод сжатия : С потерямиРазмер потока : 29,7 Мбайт (2%)Заголовок : DD 2.0 LostFilmЯзык : RussianDefault : НетForced : Нет
Аудио #4Идентификатор : 5Формат : AC-3Формат/Информация : Audio Coding 3Расширение режима : CM (complete main)Параметр Endianness формата : BigИдентификатор кодека : A_AC3Продолжительность : 21 м.Вид битрейта : ПостоянныйБитрейт : 256 Кбит/секКаналы : 2 каналаРасположение каналов : Front: L RЧастота : 48,0 КГцБитовая глубина : 16 битМетод сжатия : С потерямиЗадержка видео : 23 мс.Размер потока : 39,6 Мбайт (3%)Заголовок : DD 2.0 VO-productionЯзык : RussianDefault : НетForced : Нет
Аудио #5Идентификатор : 6Формат : DTSФормат/Информация : Digital Theater SystemsРежим : 16Параметр Endianness формата : BigИдентификатор кодека : A_DTSПродолжительность : 21 м.Вид битрейта : ПостоянныйБитрейт : 1509 Кбит/секКаналы : 6 каналовРасположение каналов : Front: L C R, Side: L R, LFEЧастота : 48,0 КГцБитовая глубина : 24 битМетод сжатия : С потерямиРазмер потока : 234 Мбайт (19%)Заголовок : DTS 5.1 OriginalЯзык : EnglishDefault : НетForced : Нет
Текст #1Идентификатор : 7Формат : UTF-8Идентификатор кодека : S_TEXT/UTF8Идентификатор кодека/Информация : UTF-8 Plain TextЗаголовок : ISFFЯзык : RussianDefault : НетForced : Нет
Текст #2Идентификатор : 8Формат : UTF-8Идентификатор кодека : S_TEXT/UTF8Идентификатор кодека/Информация : UTF-8 Plain TextЗаголовок : English originalЯзык : EnglishDefault : НетForced : Нет
Меню00:00:00.000 : en:00:00:00.00000:06:30.223 : en:00:06:30.22300:13:59.505 : en:00:13:59.50500:21:06.515 : en:00:21:06.515

Скриншоты


Вне форума [Профиль] [ЛС]
Показать сообщения:    
Ответить на тему

Текущее время: Сегодня 07:56

Часовой пояс: GMT + 3



Вы не можете начинать темы
Вы не можете отвечать на сообщения
Вы не можете редактировать свои сообщения
Вы не можете удалять свои сообщения
Вы не можете голосовать в опросах
Вы не можете прикреплять файлы к сообщениям
Вы не можете скачивать файлы