Сегодня идет свободное скачивание без начисления Download

Древние / Первородные / The Originals (Сезон 1, серии 01-10 (13)) (2013) WEB-DLRip (Кубик в Кубе) (обновляемая)

Ответить на тему
 
Автор
Сообщение

Omen ®

Стаж: 5 лет 9 месяцев

Сообщений: 184433

Торрент-статистика

Пост 20-Янв-2014 08:40

[Цитировать]

Древние / Первородные / The Originals-«Retaining whats our's by helping others»- Русское название: Древние
Оригинальное название: The Originals
Год выпуска: 2013
Страна: США
Жанр: Ужасы, фэнтези, драма, мелодрама
Перевод: Профессиональный двухголосый закадровый - Кубик в Кубе
Вид субтитров: Отдельным файлом
Язык субтитров: Русский, английский
Режиссер: Крис Грисмер
Актеры: Джозеф Морган, Дэниэл Гиллис, Чарльз Майкл Дэвис, Фиби Тонкин, Клер Холт, Стивен Крюгер, Даниэль Кэмпбелл, Каллард Харрис, Даниэлла Пинеда, Леа Пайпс и др.
Описание:
«Древние (Первородные)» — спин-офф «Дневников вампира», в центре которого находятся несколько основных персонажей сериала.
Клаус возвращается в «бурлящий котёл сверхъестественного», то есть во французский квартал Нового Орлеана, в город, который он помог построить несколько веков назад. Там он воссоединяется со своим бывшим протеже Марселем.

СЭМПЛ
Продолжительность: ~00:42:00 серия
Качество видео: WEB-DLRip
Формат: AVI
Видео: 720x400 (16:9), 23.976 fps, XviD ~1530 kbps, ~0.222 bit/pixel
Аудио Rus: 48 kHz, MPEG Layer 3, 2 ch, 192 kbps
Аудио Eng: 48 kHz, MPEG Layer 3, 2 ch, 192 kbps
Озвучка: Руслан Габидуллин и Ольга Кравцова
Автор перевода: Mekc.инфо

Список серий


01. Always and Forever / Всегда и навеки
02. House of the Rising Son / Дом, где вырастет сын
03. Tangled Up in Blue / Потерянный в море
04. Girl in New Orleans (Interview with the Vampire) / Интервью с вампиром
05. Sinners and Saints / Грешники и святые

Тех. данные (MI)

Общее
The.Originals.S01E01.WEB-DLRip.Kubik.v.Kube.avi
Формат : AVI
Формат/Информация : Audio Video Interleave
Размер файла : 587 Мбайт
Продолжительность : 42 м.
Общий поток : 1928 Кбит/сек
Программа кодирования : VirtualDubModRus 1.5.10.2 (build 2542/release)
Библиотека кодирования : VirtualDubMod build 2542/release
Видео
Идентификатор : 0
Формат : MPEG-4 Visual
Профиль формата : Advanced Simple@L5
Параметр BVOP формата : 1
Параметр QPel формата : Нет
Параметр GMC формата : Без точки перехода
Параметр матрицы формата : Default (MPEG)
Идентификатор кодека : XVID
Идентификатор кодека/Подсказка : XviD
Продолжительность : 42 м.
Битрейт : 1530 Кбит/сек
Ширина : 720 пикселей
Высота : 400 пикселей
Соотношение сторон : 16:9
Частота кадров : 23,976 кадра/сек
Цветовое пространство : YUV
Субдискретизация насыщенности : 4:2:0
Битовая глубина : 8 бит
Тип развёртки : Прогрессивная
Метод сжатия : С потерями
Бит/(Пиксели*Кадры) : 0.222
Размер потока : 466 Мбайт (79%)
Библиотека кодирования : XviD 1.2.1 (UTC 2008-12-04)
Аудио #1
Идентификатор : 1
Формат : MPEG Audio
Версия формата : Version 1
Профиль формата : Layer 3
Режим : Joint stereo
Идентификатор кодека : 55
Идентификатор кодека/Подсказка : MP3
Продолжительность : 42 м.
Вид битрейта : Постоянный
Битрейт : 192 Кбит/сек
Каналы : 2 канала
Частота : 48,0 КГц
Метод сжатия : С потерями
Размер потока : 58,4 Мбайт (10%)
Выравнивание : Разделение по промежуткам
Продолжительность промежутка : 42 мс. (1,00 видеокадр)
Время предзагрузки промежутка : 500 мс.
Аудио #2
Идентификатор : 2
Формат : MPEG Audio
Версия формата : Version 1
Профиль формата : Layer 3
Режим : Joint stereo
Идентификатор кодека : 55
Идентификатор кодека/Подсказка : MP3
Продолжительность : 42 м.
Вид битрейта : Постоянный
Битрейт : 192 Кбит/сек
Каналы : 2 канала
Частота : 48,0 КГц
Метод сжатия : С потерями
Размер потока : 58,4 Мбайт (10%)
Выравнивание : Разделение по промежуткам
Продолжительность промежутка : 42 мс. (1,00 видеокадр)
Время предзагрузки промежутка : 500 мс.
-

Скриншот c названием фильма

 
-Скриншоты:
       
-

Еще

       
-

Внимание! Раздача ведётся путём добавления новых серий!

Внимание! Раздача ведётся путём добавления новых серий; при каждом добавлении создётся новый торрент. Чтобы начать докачку новой серии, пользователям необходимо сделать следующее:
(1) остановить скачивание,
(2) удалить старый торрент у себя из клиента (старые серии удалять не надо),
(3) скачать новый торрент и запустить его у себя в клиенте вместо старого, при этом указать клиенту путь в старую папку куда и должно происходить скачивание новых серий.
Ваш клиент при этом должен произвести хеширование (проверку) старой папки (если не производит сам - помогите ему сделать это), и будет докачивать только те серии которых у вас ещё нет. Старые серии при этом не удаляются, а продолжают раздаваться!
Eсли вы уже удалили старые серии, то предотвратить повторную закачку старых серий можно, отжав галочку в соответствующих местах при запуске нового торрента.
Вне форума [Профиль] [ЛС]
Похожие темы
Форум Тема Автор Торрент Отв. Посл. сообщение
./templates/default/images/folder_dl.gif Медицина и Здоровье Лариса Кузьмина | Большой лечебник древних знахарей. Миллион народных способов лечения (2016) [FB2] }{@R0N
1 | 0

0 | 6181

21

2017-02-28 22:26
}{@R0N Последнее
Показать сообщения:    
Ответить на тему

Текущее время: Сегодня 23:26

Часовой пояс: GMT + 3



Вы не можете начинать темы
Вы не можете отвечать на сообщения
Вы не можете редактировать свои сообщения
Вы не можете удалять свои сообщения
Вы не можете голосовать в опросах
Вы не можете прикреплять файлы к сообщениям
Вы не можете скачивать файлы