Сегодня идет свободное скачивание без начисления Download

Последний настоящий мужик / Last Man Standing / Сезон: 1 / Серии: 1-6 из 22 (Джон Пасквин / John Pasquin) [2011, Комедия, HDTV 720p] VO

Ответить на тему
 
Автор
Сообщение

ZM-SHOW ®

Стаж: 6 лет 6 месяцев

Сообщений: 31

Торрент-статистика

Пост 26-Ноя-2011 11:28

[Цитировать]

Последний настоящий мужик / Last Man Standing Год выпуска: 2011
Страна: США
Жанр: Комедия
Продолжительность: 00:21:23
Озвучивание: Любительское (одноголосое закадровое) ZM
Перевод на русский: Alexjuls
Русские субтитры: нет-Режиссёр: Джон Пасквин / John Pasquin
В ролях: Tim Allen в роли Майка Бакстера, Kaitlyn Dever в роли Евы, Hector Elizondo в роли Эда, Molly Ephraim в роли Мэнди, Alexandra Krosney в роли Кристин, Shirley Rumierk в роли Никки, Christoph Sanders в роли Кайла, Shira Scott в роли Саммер, Nancy Travis в роли Ванессы-Описание: Директор по маркетингу в известном магазине спортивных товаров Майк Бакстер любит приключения и путешествия, но он путешествует только на работу и, конечно, он ездит на пикапе. Хотя Майк большой человек на работе, он лишний в доме, где доминируют женщины, а именно – его жена, Ванесса, и их три дочери, 22 – летняя Кристина, 17 – летняя Мэнди и 14 -летняя Ева. Ванесса в течение многих лет была домохозяйкой и мамой, но после выхода на работу (вернувшись на свое рабочее место) она была быстро повышена в должности, к большому разочарованию в первую очередь ее коллег-мужчин. В результате повышенной нагрузки на работе Ванессы, Майку приходиться брать воспитание дочерей на себя и уделять этому больше времени, чем раньше… В общем отец троих дочерей пытается сохранить свое достоинство в мире, где все больше преобладают женщины…

Качество: HDTV 720p
Формат: MKV
Видео: AVC, 1280x720, 23.976fps, 2526Kbps, 0.114 b/p
Аудио №1 RUS: 48 kHz, AC3 Dolby Digital, 3/2 (L,C,R,l,r) + LFE ch, ~384 kbps
Аудио №2 ENG: 48 kHz, AC3 Dolby Digital, 3/2 (L,C,R,l,r) + LFE ch, ~384 kbps

Внимание!!! Раздача ведётся путём добавления новых серий

Внимание! Раздача ведётся путём добавления новых серий; при каждом добавлении создётся новый торрент. Чтобы начать докачку новой серии, пользователям необходимо сделать следующее:
(1) остановить скачивание
(2) удалить старый торрент у себя из клиента (старые серии удалять не надо)
(3) скачать новый торрент и запустить его у себя в клиенте вместо старого, при этом указать клиенту путь в старую папку куда и должно происходить скачивание новых серий. Ваш клиент при этом должен произвести хеширование (проверку) старой папки (если не производит сам - помогите ему сделать это), и будет докачивать только те серии, которых у вас ещё нет. Старые серии при этом не удаляются, а продолжают раздаваться! Eсли вы уже удалили старые серии, то предотвратить повторную закачку старых серий можно, отжав галочку в соответсвующих местах при запуске нового торрента.
По возможности, желательно не удалять старые серии как можно дольше, чтобы релизёр не столько продолжал раздавать старые серии, а смог сконцентрироваться на новых.

MI

Общее
Уникальный идентификатор : 244751192924995873353004548993770476026 (0xB8215D79ACFE56FAB403277B494A51FA)
Полное имя : D:\ZM-SHOW\Last Man Standing Season 1. [720p]\Last.Man.Standing.S01E01.720p.HDTVRip.x264-ZM-SHOW.mkv
Формат : Matroska
Размер файла : 515 Мбайт
Продолжительность : 21 м.
Общий поток : 3361 Кбит/сек
Дата кодирования : UTC 2011-10-29 17:35:29
Программа кодирования : mkvmerge v4.6.0 ('Still Crazy After All These Years') сборка от Mar 13 2011 18:33:29
Библиотека кодирования : libebml v1.2.0 + libmatroska v1.1.0
Видео
Идентификатор : 1
Формат : AVC
Формат/Информация : Advanced Video Codec
Профиль формата : High@L3.1
Параметр CABAC формата : Да
Параметр ReFrames формата : 5 кадров
Режим смешивания : Header stripping
Идентификатор кодека : V_MPEG4/ISO/AVC
Продолжительность : 21 м.
Битрейт : 2526 Кбит/сек
Ширина : 1280 пикс.
Высота : 720 пикс.
Соотношение сторон : 16:9
Частота кадров : 23,976 кадр/сек
Цветовое пространство : YUV
Подвыборка цветности : 4:2:0
Битовая глубина : 8 бит
Тип развёртки : Прогрессивная
Бит/(Пиксели*Кадры) : 0.114
Размер потока : 387 Мбайт (75%)
Библиотека кодирования : x264 core 118 r2085 8a62835
Настройки программы : cabac=1 / ref=5 / deblock=1:0:0 / analyse=0x3:0x113 / me=umh / subme=8 / psy=1 / psy_rd=1.00:0.00 / mixed_ref=1 / me_range=16 / chroma_me=1 / trellis=1 / 8x8dct=1 / cqm=0 / deadzone=21,11 / fast_pskip=1 / chroma_qp_offset=-2 / threads=18 / sliced_threads=0 / nr=0 / decimate=1 / interlaced=0 / bluray_compat=0 / constrained_intra=0 / bframes=3 / b_pyramid=2 / b_adapt=2 / b_bias=0 / direct=3 / weightb=1 / open_gop=0 / weightp=2 / keyint=250 / keyint_min=23 / scenecut=40 / intra_refresh=0 / rc_lookahead=50 / rc=crf / mbtree=1 / crf=19.0 / qcomp=0.60 / qpmin=0 / qpmax=69 / qpstep=4 / ip_ratio=1.40 / aq=1:1.00
Язык : English
Аудио #1
Идентификатор : 2
Формат : AC-3
Формат/Информация : Audio Coding 3
Расширение режима : CM (complete main)
Режим смешивания : Header stripping
Идентификатор кодека : A_AC3
Продолжительность : 21 м.
Вид битрейта : Постоянный
Битрейт : 384 Кбит/сек
Каналы : 6 каналов
Расположение каналов : Front: L C R, Side: L R, LFE
Частота : 48,0 КГц
Битовая глубина : 16 бит
Метод сжатия : С потерями
Размер потока : 58,8 Мбайт (11%)
Заголовок : ZM-SHOW
Язык : Russian
Аудио #2
Идентификатор : 3
Формат : AC-3
Формат/Информация : Audio Coding 3
Расширение режима : CM (complete main)
Режим смешивания : Header stripping
Идентификатор кодека : A_AC3
Продолжительность : 21 м.
Вид битрейта : Постоянный
Битрейт : 384 Кбит/сек
Каналы : 6 каналов
Расположение каналов : Front: L C R, Side: L R, LFE
Частота : 48,0 КГц
Битовая глубина : 16 бит
Метод сжатия : С потерями
Размер потока : 58,8 Мбайт (11%)
Заголовок : Original
Язык : English

Скриншоты

         
Релиз подготовлен группой ZM-SHOW


Последний раз редактировалось: ZM-SHOW (2011-12-13 06:18), всего редактировалось 1 раз
Вне форума [Профиль] [ЛС]

ZM-SHOW ®

Стаж: 6 лет 6 месяцев

Сообщений: 31

Торрент-статистика

Пост 01-Дек-2011 16:27 (спустя 5 дней)

[Цитировать]

Добавлена 5 серия.
Вне форума [Профиль] [ЛС]

ZM-SHOW ®

Стаж: 6 лет 6 месяцев

Сообщений: 31

Торрент-статистика

Пост 13-Дек-2011 06:19 (спустя 11 дней)

[Цитировать]

Добавлена 6 серия.
Вне форума [Профиль] [ЛС]
Похожие темы
Форум Тема Автор Торрент Отв. Посл. сообщение
./templates/default/images/folder_dl.gif Новинки (HD|DVD|BD|WEB|TV|SAT|PDTV|-Rip) Звёздные войны: Последние джедаи / Star Wars: The Last Jedi (Райан Джонсон) [2017, фантастика, фэнтези, боевик, приключения, HDRip-AVC] DUB | iTunes Theseus
1 | 0

0 | 276

3

2018-03-13 13:46
Theseus Последнее
./templates/default/images/folder_dl.gif Новинки (BD|HDTV|DVD) Звёздные войны: Последние джедаи / Star Wars: The Last Jedi (Райан Джонсон) [2017, фантастика, фэнтези, боевик, приключения, UHD BDRemux 2160p] DUB | iTunes Theseus
1 | 0

0 | 371

2

2018-03-15 14:03
Theseus Последнее
Показать сообщения:    
Ответить на тему

Текущее время: Сегодня 14:23

Часовой пояс: GMT + 3



Вы не можете начинать темы
Вы не можете отвечать на сообщения
Вы не можете редактировать свои сообщения
Вы не можете удалять свои сообщения
Вы не можете голосовать в опросах
Вы не можете прикреплять файлы к сообщениям
Вы не можете скачивать файлы