Сегодня идет свободное скачивание без начисления Download

Друзья / Friends / Сезон 4 / Серии 1-24 из 24 (Дэвид Крэйн / David Crane, Марта Кауффман / Marta Kauffman) [1997-1998, США, мелодрама, комедия, BDRip-AVC] MVO (РТР) + Original + Sub (Rus, Eng)

Ответить на тему
 
Автор
Сообщение

Omen ®

Стаж: 5 лет 9 месяцев

Сообщений: 184433

Торрент-статистика

Пост 16-Янв-2014 14:00

[Цитировать]

--Друзья / Friends«Everybody needs Friends!»-- -- Страна: США
Жанр: мелодрама, комедия
Год выхода: 1997-1998
Продолжительность: 24 x 22 мин.
Перевод: профессиональный (многоголосый, закадровый) (РТР)
Субтитры: русские, английские (SDH)
Оригинальная аудиодорожка: английская
Режиссер: Дэвид Крэйн, Марта Кауффман
В ролях: Дженнифер Энистон, Кортни Кокс, Лиза Кудроу, Мэтт ЛеБлан, Мэттью Перри, Дэвид Швиммер
О фильме: Главные герои — шестеро друзей — Рейчел, Моника, Фиби, Джоуи, Чендлер и Росс. Три девушки и три парня, которые дружат, живут по соседству, вместе убивают время и противостоят жестокой реальности, делятся своими секретами и иногда очень сильно влюбляются.

Релиз от -
Автор: Gellard
Сэмпл: скачать
Качество: BDRip-AVC (источник: HDCLUB / Blu-Ray Disc / 1080p)
Формат: MKV
Видео: 1024x576 (16:9), 23.976 fps, x264, ~2200 kbps avg, 0.156 bit/pixel
Аудио #1: (MVO) 48 kHz, AC3 Dolby Digital, 2/0 (L,R) ch, 256.00 kbps avg
Аудио #2: (ENG) 48 kHz, AC3 Dolby Digital, 3/2 (L,C,R,l,r) + LFE ch, 384.00 kbps avg
Размер: ~450 Mb-
-

Скриншоты

Список серий

  • Friends S04E01: Эпизод с медузой / The One with the Jellyfish (1997)
  • Friends S04E02: Эпизод с кошкой / The One with the Cat (1997)
  • Friends S04E03: Эпизод с наручниками / The One with the 'Cuffs (1997)
  • Friends S04E04: Эпизод с танцем для бала / The One with the Ballroom Dancing (1997)
  • Friends S04E05: Эпизод с новой подругой Джо / The One with Joey's New Girlfriend (1997)
  • Friends S04E06: Эпизод с девушкой-грязнулей / The One with the Dirty Girl (1997)
  • Friends S04E07: Эпизод, где Чендлер пересекает черту / The One Where Chandler Crosses the Line (1997)
  • Friends S04E08: Эпизод с Чендлером в ящике / The One with Chandler in a Box (1997)
  • Friends S04E09: Эпизод, где они идут на вечеринку! / The One Where They're Going to Party!
  • Friends S04E10: Эпизод с девушкой из Пукипси / The One with the Girl from Poughkeepsie (1997)
  • Friends S04E11: Эпизод с маткой Фиби / The One with Phoebe's Uterus (1998)
  • Friends S04E12: Эпизод с эмбрионами / The One with the Embryos (1998)
  • Friends S04E13: Эпизод с влюблённостью Рэйчел / The One with Rachel's Crush (1998)
  • Friends S04E14: Эпизод с грязным днем Джо / The One with Joey's Dirty Day (1998)
  • Friends S04E15: Эпизод с регби / The One with All the Rugby (1998)
  • Friends S04E16: Эпизод с ложной вечеринкой / The One with the Fake Party (1998)
  • Friends S04E17: Эпизод с бесплатным порно / The One with the Free Porn (1998)
  • Friends S04E18: Эпизод с новым платьем Рэйчел / The One with Rachel's New Dress (1998)
  • Friends S04E19: Эпизод, где все спешат / The One with All the Haste (1998)
  • Friends S04E20: Эпизод со свадебными платьями / The One with All the Wedding Dresses (1998)
  • Friends S04E21: Эпизод с приглашениями / The One with the Invitation (1998)
  • Friends S04E22: Эпизод с самым плохим шафером всех времён / The One with the Worst Best Man Ever (1998)
  • Friends S04E23: Эпизод со свадьбой Росса, часть 1 / The One with Ross's Wedding: Part 1 (1998)
  • Friends S04E24: Эпизод со свадьбой Росса, часть 2 / The One with Ross's Wedding: Part 2 (1998)

Media Info

Код:
Complete name                            : Friends.S04E01.The.One.with.the.Jellyfish.mkv
Format                                   : Matroska
Format version                           : Version 4 / Version 2
File size                                : 463 MiB
Duration                                 : 22mn 46s
Overall bit rate                         : 2 841 Kbps
Encoded date                             : UTC 2014-01-08 20:16:10
Writing application                      : mkvmerge v6.5.0 ('Isn't she lovely') built on Oct 20 2013 12:50:05
Writing library                          : libebml v1.3.0 + libmatroska v1.4.1
Video
ID                                       : 1
Format                                   : AVC
Format/Info                              : Advanced Video Codec
Format profile                           : High@L4.1
Format settings, CABAC                   : Yes
Format settings, ReFrames                : 9 frames
Codec ID                                 : V_MPEG4/ISO/AVC
Duration                                 : 22mn 46s
Bit rate                                 : 2 200 Kbps
Width                                    : 1 024 pixels
Height                                   : 576 pixels
Display aspect ratio                     : 16:9
Frame rate mode                          : Constant
Frame rate                               : 23.976 fps
Color space                              : YUV
Chroma subsampling                       : 4:2:0
Bit depth                                : 8 bits
Scan type                                : Progressive
Bits/(Pixel*Frame)                       : 0.156
Stream size                              : 349 MiB (75%)
Title                                    : Friends S04E01: Эпизод с медузой / The One with the Jellyfish (1997) BDRip-AVC by Gellard
Writing library                          : x264 core 138 r2358 9e941d1
Encoding settings                        : cabac=1 / ref=9 / deblock=1:-2:-1 / analyse=0x3:0x113 / me=umh / subme=11 / psy=1 / psy_rd=1.10:0.10 / mixed_ref=1 / me_range=32 / chroma_me=1 / trellis=2 / 8x8dct=1 / cqm=0 / deadzone=21,11 / fast_pskip=1 / chroma_qp_offset=-5 / threads=9 / lookahead_threads=1 / sliced_threads=0 / nr=0 / decimate=1 / interlaced=0 / bluray_compat=0 / constrained_intra=0 / bframes=9 / b_pyramid=2 / b_adapt=2 / b_bias=0 / direct=1 / weightb=1 / open_gop=0 / weightp=2 / keyint=240 / keyint_min=23 / scenecut=40 / intra_refresh=0 / rc_lookahead=40 / rc=2pass / mbtree=1 / bitrate=2200 / ratetol=1.0 / qcomp=0.60 / qpmin=10 / qpmax=69 / qpstep=4 / cplxblur=20.0 / qblur=0.5 / vbv_maxrate=62500 / vbv_bufsize=50000 / nal_hrd=none / ip_ratio=1.40 / aq=1:0.90
Language                                 : English
Default                                  : Yes
Forced                                   : No
Audio #1
ID                                       : 2
Format                                   : AC-3
Format/Info                              : Audio Coding 3
Mode extension                           : CM (complete main)
Format settings, Endianness              : Big
Codec ID                                 : A_AC3
Duration                                 : 22mn 46s
Bit rate mode                            : Constant
Bit rate                                 : 256 Kbps
Channel count                            : 2 channels
Channel positions                        : Front: L R
Sampling rate                            : 48.0 KHz
Bit depth                                : 16 bits
Compression mode                         : Lossy
Stream size                              : 41.7 MiB (9%)
Title                                    : Многоголосый (РТР) AC3 2.0 @ 256 kbps
Language                                 : Russian
Default                                  : Yes
Forced                                   : No
Audio #2
ID                                       : 3
Format                                   : AC-3
Format/Info                              : Audio Coding 3
Mode extension                           : CM (complete main)
Format settings, Endianness              : Big
Codec ID                                 : A_AC3
Duration                                 : 22mn 46s
Bit rate mode                            : Constant
Bit rate                                 : 384 Kbps
Channel count                            : 6 channels
Channel positions                        : Front: L C R, Side: L R, LFE
Sampling rate                            : 48.0 KHz
Bit depth                                : 16 bits
Compression mode                         : Lossy
Stream size                              : 62.6 MiB (14%)
Title                                    : Оригинал AC3 5.1 @ 384 kbps
Language                                 : English
Default                                  : No
Forced                                   : No
Text #1
ID                                       : 4
Format                                   : UTF-8
Codec ID                                 : S_TEXT/UTF8
Codec ID/Info                            : UTF-8 Plain Text
Title                                    : Русские (Dais)
Language                                 : Russian
Default                                  : No
Forced                                   : No
Text #2
ID                                       : 5
Format                                   : UTF-8
Codec ID                                 : S_TEXT/UTF8
Codec ID/Info                            : UTF-8 Plain Text
Title                                    : Английские (SDH)
Language                                 : English
Default                                  : No
Forced                                   : No

Альтернативные раздачи

Все раздачи сериала "Друзья"
Вне форума [Профиль] [ЛС]
Показать сообщения:    
Ответить на тему

Текущее время: Сегодня 16:41

Часовой пояс: GMT + 3



Вы не можете начинать темы
Вы не можете отвечать на сообщения
Вы не можете редактировать свои сообщения
Вы не можете удалять свои сообщения
Вы не можете голосовать в опросах
Вы не можете прикреплять файлы к сообщениям
Вы не можете скачивать файлы