Сегодня идет свободное скачивание без начисления Download

Шерлок / Sherlock / Сезон: 3 / Серии: 1-2 из 3 (Джереми Лавринг, Колм Маккарти, Ник Харран) [2014, детектив, драма, HDTVRip 720p] DUB (Первый канал)

Ответить на тему
 
Автор
Сообщение

sashau ®

Пол:

Стаж: 6 лет 6 месяцев

Сообщений: 3556

Торрент-статистика

Пост 06-Янв-2014 09:29

[Цитировать]

Шерлок / Sherlock Год выпуска: 2014
Страна: Великобритания
Жанр: детектив, драма
Продолжительность: 01:30:00 / серия
Перевод: Профессиональный (дублированный) Первый канал
Субтитры: нет
Режиссёр: Джереми Лавринг, Колм Маккарти, Ник Харран
В ролях: Бенедикт Камбербэтч, Мартин Фриман, Уна Стаббс, Лу Брили, Руперт Грейвз, Марк Гатисс, Зои Телфорд, Винетт Робинсон, Таня Муди, Джонатан Арис и другие.
Описание: Сериал представляет собой современную версию книг и рассказов о приключениях Шерлока Холмса. Отсюда изменение образов главных персонажей: Холмс здесь не всегда вежлив, но всё так же гениален; в отличие от оригинального Холмса, он не употребляет наркотики и использует никотиновый пластырь. Ватсон, как и в оригинальных произведениях, служил военным врачом в Афганистане. Миссис Хадсон относится к Холмсу как к сыну, хотя и не одобряет то, что он часто приказывает ей как домработнице. Лестрейд не против сотрудничества с Холмсом, и часто сам зовёт его на помощь. Его характер из книг передан девушке-сержанту Салли Донован. Также, в отличие от книг, здесь Холмс и Ватсон называют друг друга по именам, а не по фамилиям.
Третий сезон: после смерти Шерлока проходит два года, жизнь доктора Джона Ватсона идет своим чередом. А вот над Лондоном нависает угроза разрушительной террористической атаки, и Шерлок готовит сценарий своего невероятного воскрешения. Но, если он думает, что за время его отсутствия ничего не изменилось – он будет очень удивлен…
Сэмпл: http://multi-up.com/937487
Доп. информация: Релиз -

Рип чистый. Без посторонних надписей. Выкладывается как есть.
Качество: HDTVRip 720p
Контейнер: MKV
Видео: AVC, 1280x720 (16:9), 25.000 fps, ~ 1603 kbps, 0.070 bit/pixel
Аудио: AC3, 48 kHz, 2 ch, 384 kbps

Скриншоты

         

MI

GeneralUnique ID : 209790603187460468096272404325413091182 (0x9DD433523278B5D0BC7C128FB186F76E)Complete name : C:\2013\Sherlock. S03E01 (2013, HDTVRip 720p) (MYDIMKA).mkvFormat : MatroskaFormat version : Version 2File size : 1.22 GiBDuration : 1h 26mnOverall bit rate : 2 027 KbpsEncoded date : UTC 2014-01-02 02:25:42Writing application : mkvmerge v5.8.0 ('No Sleep / Pillow') built on Sep 2 2012 15:37:04Writing library : libebml v1.2.3 + libmatroska v1.3.0
VideoID : 1Format : AVCFormat/Info : Advanced Video CodecFormat profile : High@L4.0Format settings, CABAC : YesFormat settings, ReFrames : 8 framesCodec ID : V_MPEG4/ISO/AVCDuration : 1h 26mnBit rate : 1 603 KbpsWidth : 1 280 pixelsHeight : 720 pixelsDisplay aspect ratio : 16:9Frame rate mode : ConstantFrame rate : 25.000 fpsColor space : YUVChroma subsampling : 4:2:0Bit depth : 8 bitsScan type : ProgressiveBits/(Pixel*Frame) : 0.070Stream size : 992 MiB (79%)Writing library : x264 core 125 r2208 d9d2288Encoding settings : cabac=1 / ref=8 / deblock=1:-1:-1 / analyse=0x3:0x133 / me=umh / subme=7 / psy=1 / psy_rd=1.00:0.10 / mixed_ref=1 / me_range=16 / chroma_me=1 / trellis=2 / 8x8dct=1 / cqm=0 / deadzone=21,11 / fast_pskip=0 / chroma_qp_offset=-3 / threads=12 / lookahead_threads=2 / sliced_threads=0 / nr=0 / decimate=1 / interlaced=0 / bluray_compat=0 / constrained_intra=0 / bframes=3 / b_pyramid=2 / b_adapt=2 / b_bias=0 / direct=3 / weightb=1 / open_gop=0 / weightp=2 / keyint=250 / keyint_min=25 / scenecut=40 / intra_refresh=0 / rc_lookahead=50 / rc=crf / mbtree=1 / crf=21.0 / qcomp=0.60 / qpmin=0 / qpmax=69 / qpstep=4 / ip_ratio=1.40 / aq=1:1.00Default : YesForced : No
AudioID : 2Format : AC-3Format/Info : Audio Coding 3Mode extension : CM (complete main)Format settings, Endianness : BigCodec ID : A_AC3Duration : 1h 26mnBit rate mode : ConstantBit rate : 384 KbpsChannel count : 2 channelsChannel positions : Front: L RSampling rate : 48.0 KHzBit depth : 16 bitsCompression mode : LossyStream size : 238 MiB (19%)Default : YesForced : No
Вне форума [Профиль] [ЛС]

Meerrauber

Стаж: 6 лет 7 месяцев

Сообщений: 2

Торрент-статистика

Пост 06-Янв-2014 17:44 (спустя 8 часов)

[Цитировать]

Чёт во второй серии в движении изображение смазывается.
Вне форума [Профиль] [ЛС]
Похожие темы
Форум Тема Автор Торрент Отв. Посл. сообщение
./templates/default/images/folder_dl.gif Обучающее видео Как зарабатывать на торгах по банкротству по методу Шерлока Холмса [2017 г.] worldup
1 | 0

0 | 8544

22

2017-04-21 18:06
worldup Последнее
Показать сообщения:    
Ответить на тему

Текущее время: Сегодня 13:30

Часовой пояс: GMT + 3



Вы не можете начинать темы
Вы не можете отвечать на сообщения
Вы не можете редактировать свои сообщения
Вы не можете удалять свои сообщения
Вы не можете голосовать в опросах
Вы не можете прикреплять файлы к сообщениям
Вы не можете скачивать файлы