Сегодня идет свободное скачивание без начисления Download

Шерлок / Sherlock (2014) HDTVRip [720p] (3 сезон. 1-я серия из 3) Первый канал (обновляемая)

Ответить на тему
 
Автор
Сообщение

UndegraundMen ®

Стаж: 5 лет 10 месяцев

Сообщений: 25860

Торрент-статистика

Пост 03-Янв-2014 11:04

[Цитировать]

Шерлок / Sherlock (2014) HDTVRip [720p] (3 сезон. 1-я из 3, обновляемая)- Год выпуска: 2013
Жанр: Детектив, Драма, Комедия
Выпущено: Великобритания, Hartswood Films, BBC Wales, Masterpiece Theatre
Перевод: Дублированный, Первый канал
Субтитры: Русские, отдельным файлом

Режиссер: Пол МакГиган
Актеры: Бенедикт Камбербэтч, Мартин Фриман, Уна Стаббс, Лу Брили, Руперт Грейвз, Марк Гатисс, Зои Телфорд, Винетт Робинсон, Таня Муди, Джонатан Арис и другие.
Описание фильма:
Сериал представляет собой современную версию книг и рассказов о приключениях Шерлока Холмса. Отсюда изменение образов главных персонажей: Холмс здесь не всегда вежлив, но всё так же гениален; в отличие от оригинального Холмса, он не употребляет наркотики и использует никотиновый пластырь. Ватсон, как и в оригинальных произведениях, служил военным врачом в Афганистане. Миссис Хадсон относится к Холмсу как к сыну, хотя и не одобряет то, что он часто приказывает ей как домработнице. Лестрейд не против сотрудничества с Холмсом, и часто сам зовёт его на помощь. Его характер из книг передан девушке-сержанту Салли Донован. Также, в отличие от книг, здесь Холмс и Ватсон называют друг друга по именам, а не по фамилиям.
Третий сезон: после смерти Шерлока проходит два года, жизнь доктора Джона Ватсона идет своим чередом. А вот над Лондоном нависает угроза разрушительной террористической атаки, и Шерлок готовит сценарий своего невероятного воскрешения. Но, если он думает, что за время его отсутствия ничего не изменилось – он будет очень удивлен…
Продолжительность: 1 x ~ 01:30:00
Качество видео: HDTVRip
Видеокодек: MPEG-4 AVC/H.264
Битрейт видео: ~2379 kbps
Размер кадра: 1280x720
Аудиокодек и битрейт:
Русский - MP3, 192 kbps
Английский - АС3, 192 kbps
Сэмпл, 11Mb

MediaInfo

Код:
Общее
Уникальный идентификатор                 : 185481652024334310621184019990069468384 (0x8B8A777EAF546175B8FCB9502CFD5CE0)
Полное имя                               : D:\Down\Sherlock.S03E01720p.HDTVRip\Sherlock.S03E01720p.HDTVRip.FirstCh.mkv
Формат                                   : Matroska
Версия формата                           : Version 2
Размер файла                             : 1,80 Гбайт
Продолжительность                        : 1 ч. 26 м.
Общий поток                              : 2978 Кбит/сек
Дата кодирования                         : UTC 2014-01-02 15:14:43
Программа кодирования                    : mkvmerge v4.1.1 ('Bouncin' Back') built on Jul  3 2010 22:54:08
Библиотека кодирования                   : libebml v1.0.0 + libmatroska v1.0.0
Видео
Идентификатор                            : 1
Формат                                   : AVC
Формат/Информация                        : Advanced Video Codec
Профиль формата                          : [url=mailto:Baseline@L3.1]Baseline@L3.1[/url]
Параметр CABAC формата                   : Нет
Параметр ReFrames формата                : 1 кадр
Параметр GOP формата                     : M=1, N=12
Идентификатор кодека                     : V_MPEG4/ISO/AVC
Продолжительность                        : 1 ч. 26 м.
Битрейт                                  : 2535 Кбит/сек
Ширина                                   : 1280 пикселей
Высота                                   : 720 пикселей
Соотношение сторон                       : 16:9
Режим частоты кадров                     : Постоянный
Частота кадров                           : 25,000 кадров/сек
Цветовое пространство                    : YUV
Субдискретизация насыщенности            : 4:2:0
Битовая глубина                          : 8 бит
Тип развёртки                            : Прогрессивная
Бит/(Пиксели*Кадры)                      : 0.110
Размер потока                            : 1,53 Гбайт (85%)
Default                                  : Да
Forced                                   : Нет
Аудио #1
Идентификатор                            : 2
Формат                                   : AC-3
Формат/Информация                        : Audio Coding 3
Расширение режима                        : CM (complete main)
Параметр Endianness формата              : Big
Режим смешивания                         : Header stripping
Идентификатор кодека                     : A_AC3
Продолжительность                        : 1 ч. 26 м.
Вид битрейта                             : Постоянный
Битрейт                                  : 192 Кбит/сек
Каналы                                   : 2 канала
Расположение каналов                     : Front: L R
Частота                                  : 44,1 КГц
Битовая глубина                          : 16 бит
Метод сжатия                             : С потерями
Размер потока                            : 119 Мбайт (6%)
Заголовок                                : FirstCh
Язык                                     : Russian
Default                                  : Да
Forced                                   : Нет
Аудио #2
Идентификатор                            : 3
Формат                                   : AC-3
Формат/Информация                        : Audio Coding 3
Расширение режима                        : CM (complete main)
Параметр Endianness формата              : Big
Режим смешивания                         : Header stripping
Идентификатор кодека                     : A_AC3
Продолжительность                        : 1 ч. 26 м.
Вид битрейта                             : Постоянный
Битрейт                                  : 192 Кбит/сек
Каналы                                   : 2 канала
Расположение каналов                     : Front: L R
Частота                                  : 48,0 КГц
Битовая глубина                          : 16 бит
Метод сжатия                             : С потерями
Размер потока                            : 119 Мбайт (6%)
Default                                  : Нет
Forced                                   : Нет
Общее
Полное имя                               : D:\Down\Sherlock.S03E01720p.HDTVRip\Sherlock.S03E01720p.HDTVRip.FirstCh.srt
Формат                                   : SubRip
Размер файла                             : 97,7 Кбайт
Текст
Формат                                   : SubRip
Метод сжатия                             : Без потерь

Внимание! Раздача ведётся путём добавления новых серий

Внимание! Раздача ведётся путём добавления новых серий; при каждом добавлении создаётся новый торрент.
Чтобы начать докачку новой серии, пользователям необходимо сделать следующее:
1. Остановить скачивание;
2. Удалить старый торрент у себя из клиента (старые серии удалять не надо);
3. Скачать новый торрент и запустить его у себя в клиенте вместо старого, при этом указать клиенту путь в старую папку куда и должно происходить скачивание новых серий. Ваш клиент при этом должен произвести хеширование (проверку) старой папки и будет докачивать только те серии, которых у вас ещё нет. Старые серии при этом не удаляются, а продолжают раздаваться! Eсли вы уже удалили старые серии, то предотвратить повторную закачку старых серий можно, отжав галочку в соответствующих местах при запуске нового торрента.
Скриншоты:          Время раздачи: C 8:00 до 23:00 мск. До первых пяти скачавших.
Вне форума [Профиль] [ЛС]
Похожие темы
Форум Тема Автор Торрент Отв. Посл. сообщение
./templates/default/images/folder_dl.gif Обучающее видео Как зарабатывать на торгах по банкротству по методу Шерлока Холмса [2017 г.] worldup
1 | 0

0 | 8869

30

2017-04-21 18:06
worldup Последнее
Показать сообщения:    
Ответить на тему

Текущее время: Сегодня 23:44

Часовой пояс: GMT + 3



Вы не можете начинать темы
Вы не можете отвечать на сообщения
Вы не можете редактировать свои сообщения
Вы не можете удалять свои сообщения
Вы не можете голосовать в опросах
Вы не можете прикреплять файлы к сообщениям
Вы не можете скачивать файлы