Сегодня идет свободное скачивание без начисления Download

Шерлок / Sherlock (Сезон 3, серии 1- из 3) (2014) WEB-DLRip [1080p] Первый канал (обновляемая)

Ответить на тему
 
Автор
Сообщение

UndegraundMen ®

Стаж: 5 лет 8 месяцев

Сообщений: 25860

Торрент-статистика

Пост 03-Янв-2014 11:04

[Цитировать]

Шерлок / Sherlock (Сезон 3, серии 1- из 3) (2014) WEB-DLRip [1080p] Первый канал (обновляемая)- Русское название: Шерлок
Оригинальное название: Sherlock
Производство: "Hartswood Films", "BBC Wales", "Masterpiece Theatre", Великобритания
Год выпуска: 2013
Жанр: Триллер, Драма, Криминал, Детектив
Перевод: Дублированный - Первый канал
Режиссер: Пол МакГиган
Актеры: Бенедикт Камбербэтч, Мартин Фриман, Уна Стаббс, Эндрю Скотт, Лара Пулвер, Лу Брили, Руперт Грейвз, Марк Гатисс, Винетт Робинсон, Джонатан Арис
Описание фильма:
События разворачиваются в наши дни. Он прошел Афганистан, остался инвалидом. По возвращении в родные края встречается с загадочным, но своеобразным гениальным человеком. Тот в поиске соседа по квартире. Лондон, 2010 год. Происходят необъяснимые убийства. Скотланд-Ярд без понятия, за что хвататься. Существует лишь один человек, который в силах разрешить проблемы и найти ответы на сложные вопросы.

Дата мировой премьеры: 01.01.2014
Дата российской премьеры: 02.01.2014
Продолжительность: 1 x ~ 01:27:00
Качество видео: WEB-DLRip
Видеокодек: AVC/H.264
Битрейт видео: ~4700 Kbps
Размер кадра: 1912x1072
Аудио #1: /RUS/ AC3, 2.0 ch, 192 Kbps
Аудио #2: /ENG/ AC3, 5.1 ch, 384 Kbps

MediaInfo:

Код:
Общее
Уникальный идентификатор : 185465054915357975612849470033505551582 (0x8B874531B7E2B9FF974026CBF5E004DE)
Полное имя : E:\DOWNLOADS\Шерлок (3 сезон) (2013) WEB-DLRip 1080\Шерлок - 01 серия.mkv
Формат : Matroska
Версия формата : Version 4 / Version 2
Размер файла : 3,27 Гбайт
Продолжительность : 1 ч. 26 м.
Общий поток : 5411 Кбит/сек
Дата кодирования : UTC 2014-01-02 17:33:07
Программа кодирования : mkvmerge v6.1.0 ('Old Devil') built on Mar 4 2013 09:10:42
Библиотека кодирования : libebml v1.3.0 + libmatroska v1.4.0
Видео
Идентификатор : 1
Формат : AVC
Формат/Информация : Advanced Video Codec
Профиль формата : [url=mailto:High@L4.0]High@L4.0[/url]
Параметр CABAC формата : Да
Параметр ReFrames формата : 4 кадра
Идентификатор кодека : V_MPEG4/ISO/AVC
Продолжительность : 1 ч. 26 м.
Битрейт : 4727 Кбит/сек
Ширина : 1912 пикселей
Высота : 1072 пикселя
Соотношение сторон : 16:9
Соотношение сторон в оригинале : 16:9
Режим частоты кадров : Постоянный
Частота кадров : 25,000 кадров/сек
Цветовое пространство : YUV
Субдискретизация насыщенности : 4:2:0
Битовая глубина : 8 бит
Тип развёртки : Прогрессивная
Бит/(Пиксели*Кадры) : 0.092
Размер потока : 2,85 Гбайт (87%)
Default : Да
Forced : Нет
Основные цвета : BT.709
Характеристики трансфера : BT.709
Коэффициенты матрицы : BT.709
Аудио #1
Идентификатор : 2
Формат : AC-3
Формат/Информация : Audio Coding 3
Расширение режима : CM (complete main)
Параметр Endianness формата : Big
Идентификатор кодека : A_AC3
Продолжительность : 1 ч. 26 м.
Вид битрейта : Постоянный
Битрейт : 192 Кбит/сек
Каналы : 2 канала
Расположение каналов : Front: L R
Частота : 48,0 КГц
Битовая глубина : 16 бит
Метод сжатия : С потерями
Размер потока : 119 Мбайт (4%)
Язык : Russian
Default : Да
Forced : Нет
Аудио #2
Идентификатор : 3
Формат : AC-3
Формат/Информация : Audio Coding 3
Расширение режима : CM (complete main)
Параметр Endianness формата : Big
Идентификатор кодека : A_AC3
Продолжительность : 1 ч. 26 м.
Вид битрейта : Постоянный
Битрейт : 384 Кбит/сек
Каналы : 6 каналов
Расположение каналов : Front: L C R, Side: L R, LFE
Частота : 48,0 КГц
Битовая глубина : 16 бит
Метод сжатия : С потерями
Размер потока : 237 Мбайт (7%)
Язык : English
Default : Нет
Forced : Нет

Список серий:

01 серия - The Empty Hearse / Пустой катафалк
02 серия - Ожидайте... (06/01/2014)
03 серия - Ожидайте... (13/01/2014)

Описание обновления торрента

Внимание! Раздача ведётся путём добавления новых серий; при каждом добавлении создаётся новый торрент. Чтобы начать скачивание новой серии, пользователям необходимо сделать следующее:
1. Остановить скачивание.
2. Удалить старый торрент у себя из клиента (старые серии удалять не нужно).
3. Скачать новый торрент и запустить его у себя в клиенте вместо старого, при этом указать клиенту путь в старую папку, куда и должно происходить скачивание новых серий.
Ваш клиент при этом должен произвести хеширование (проверку) старой папки (если не производит сам - помогите ему сделать это), и будет докачивать только те серии, которых у вас ещё нет. Старые серии при этом не удаляются, а продолжают раздаваться!
Если вы уже удалили старые серии, то предотвратить повторную закачку старых серий можно, отжав галочку в соответствующих местах при запуске нового торрента. По возможности, желательно не удалять старые серии как можно дольше, чтобы релизёр смог сконцентрироваться на новых сериях, а не продолжал раздавать старые.
Скриншоты:
         
Время раздачи: с 10.00 до 20.00
Вне форума [Профиль] [ЛС]
Похожие темы
Форум Тема Автор Торрент Отв. Посл. сообщение
./templates/default/images/folder_dl.gif Обучающее видео Как зарабатывать на торгах по банкротству по методу Шерлока Холмса [2017 г.] worldup
1 | 0

0 | 8768

27

2017-04-21 18:06
worldup Последнее
Показать сообщения:    
Ответить на тему

Текущее время: Сегодня 07:54

Часовой пояс: GMT + 3



Вы не можете начинать темы
Вы не можете отвечать на сообщения
Вы не можете редактировать свои сообщения
Вы не можете удалять свои сообщения
Вы не можете голосовать в опросах
Вы не можете прикреплять файлы к сообщениям
Вы не можете скачивать файлы