Сегодня идет свободное скачивание без начисления Download

Шерлок / Sherlock (2013) HDTVRip [(Сезон 3 / Серии 1 из 3)] [H.264/1080p-LQ] (Обновляемая)

Ответить на тему
 
Автор
Сообщение

UndegraundMen ®

Стаж: 5 лет 6 месяцев

Сообщений: 25860

Торрент-статистика

Пост 02-Янв-2014 22:54

[Цитировать]

Шерлок / Sherlock (2013) HDTVRip [(Сезон 3 / Серии 1 из 3)] [H.264/1080p-LQ]- Год выпуска: 2013
Страна: Великобритания
Производство: "Hartswood Films", "BBC Wales", "Masterpiece Theatre"
Жанр: Драма, Детектив
Перевод: Дублированный

Дата мировой премьеры: 1 января 2014
Дата российской премьеры: 1 января 2014
Режиссер: Пол МакГиган, Коки Гидройч, Эрос Лин
Актеры: Бенедикт Камбербэтч, Мартин Фриман, Уна Стаббс, Лу Брили, Руперт Грейвз, Марк Гатисс, Зои Телфорд, Винетт Робинсон, Таня Муди, Джонатан Арис и др.
Описание фильма:
Сериал представляет собой современную версию книг и рассказов о приключениях Шерлока Холмса. Отсюда изменение образов главных персонажей: Холмс здесь не всегда вежлив, но всё так же гениален; в отличие от оригинального Холмса, он не употребляет наркотики и использует никотиновый пластырь. Ватсон, как и в оригинальных произведениях, служил военным врачом в Афганистане. Миссис Хадсон относится к Холмсу как к сыну, хотя и не одобряет то, что он часто приказывает ей как домработнице. Лестрейд не против сотрудничества с Холмсом, и часто сам зовёт его на помощь. Его характер из книг передан девушке-сержанту Салли Донован. Также, в отличие от книг, здесь Холмс и Ватсон называют друг друга по именам, а не по фамилиям.
Третий сезон: после смерти Шерлока проходит два года, жизнь доктора Джона Ватсона идет своим чередом. А вот над Лондоном нависает угроза разрушительной террористической атаки, и Шерлок готовит сценарий своего невероятного воскрешения. Но, если он думает, что за время его отсутствия ничего не изменилось – он будет очень удивлен…
Продолжительность: 1:25:48
Качество видео: HDTVRip [H.264/1080p-LQ]
Видеокодек: MPEG-4 AVC/H.264
Битрейт видео: ~6000 кбит/с
Размер кадра: 1920х1080
Аудио Rus: AC3 2.0, 48 кГц, 384 кбит/с

MediaInfo

Код:
Общее
Уникальный идентификатор                 : 168348648403719580577546155723716462494 (0x7EA6C532C2870C1E037BA147C20E879E)
Полное имя                               : E:\Закачки\Шерлок\Шерлок. 01 серия. Пустой катафалк.mkv
Формат                                   : Matroska
Версия формата                           : Version 2
Размер файла                             : 3,82 Гбайт
Продолжительность                        : 1 ч. 25 м.
Общий поток                              : 6378 Кбит/сек
Программа кодирования                    : Lavf51.12.1
Библиотека кодирования                   : Lavf51.12.1
Видео
Идентификатор                            : 1
Формат                                   : AVC
Формат/Информация                        : Advanced Video Codec
Профиль формата                          : [url=mailto:Baseline@L4.0]Baseline@L4.0[/url]
Параметр CABAC формата                   : Нет
Параметр ReFrames формата                : 1 кадр
Параметр GOP формата                     : M=1, N=12
Идентификатор кодека                     : V_MPEG4/ISO/AVC
Продолжительность                        : 1 ч. 25 м.
Битрейт                                  : 5867 Кбит/сек
Ширина                                   : 1920 пикселей
Высота                                   : 1080 пикселей
Соотношение сторон                       : 16:9
Режим частоты кадров                     : Постоянный
Частота кадров                           : 25,000 кадров/сек
Цветовое пространство                    : YUV
Субдискретизация насыщенности            : 4:2:0
Битовая глубина                          : 8 бит
Тип развёртки                            : Прогрессивная
Бит/(Пиксели*Кадры)                      : 0.113
Размер потока                            : 3,52 Гбайт (92%)
Default                                  : Да
Forced                                   : Нет
Аудио
Идентификатор                            : 2
Формат                                   : AC-3
Формат/Информация                        : Audio Coding 3
Расширение режима                        : CM (complete main)
Параметр Endianness формата              : Big
Идентификатор кодека                     : A_AC3
Продолжительность                        : 1 ч. 25 м.
Вид битрейта                             : Постоянный
Битрейт                                  : 384 Кбит/сек
Каналы                                   : 2 канала
Расположение каналов                     : Front: L R
Частота                                  : 48,0 КГц
Битовая глубина                          : 16 бит
Метод сжатия                             : С потерями
Размер потока                            : 236 Мбайт (6%)
Default                                  : Да
Forced                                   : Нет

Раздача ведётся путём добавления новых серий

Раздача ведётся путём добавления новых серий; при каждом добавлении создаётся новый торрент. Чтобы начать докачку новой серии, пользователям необходимо сделать следующее:
(1) остановить скачивание,
(2) удалить старый торрент у себя из клиента (старые серии удалять не надо),
(3) скачать новый торрент и запустить его у себя в клиенте вместо старого, при этом указать клиенту путь в старую папку куда и должно происходить скачивание новых серий.
Ваш клиент при этом должен произвести хеширование (проверку) старой папки (если не производит сам - помогите ему сделать это), и будет докачивать только те серии которых у вас ещё нет. Старые серии при этом не удаляются, а продолжают раздаваться!
Eсли вы уже удалили старые серии, то предотвратить повторную закачку старых серий можно, отжав галочку в соответствующих местах при запуске нового торрента. По возможности, желательно не удалять старые серии как можно дольше чтобы релизёр не столько продолжал раздавать старые серии, а смог сконцентрироваться на новых.
Скриншоты:            Пожалуйста, не уходите с раздачи - помогите докачать другим.Время раздачи: 24/7
Вне форума [Профиль] [ЛС]
Похожие темы
Форум Тема Автор Торрент Отв. Посл. сообщение
./templates/default/images/folder_dl.gif Обучающее видео Как зарабатывать на торгах по банкротству по методу Шерлока Холмса [2017 г.] worldup
1 | 0

0 | 8621

24

2017-04-21 18:06
worldup Последнее
Показать сообщения:    
Ответить на тему

Текущее время: Сегодня 15:07

Часовой пояс: GMT + 3



Вы не можете начинать темы
Вы не можете отвечать на сообщения
Вы не можете редактировать свои сообщения
Вы не можете удалять свои сообщения
Вы не можете голосовать в опросах
Вы не можете прикреплять файлы к сообщениям
Вы не можете скачивать файлы