Сегодня идет свободное скачивание без начисления Download

Отбросы / Misfits (2013) HDTV 1080p [Сезон 5, серии 1-8 из 8] [Кубик в Кубе]

Ответить на тему
 
Автор
Сообщение

UndegraundMen ®

Стаж: 5 лет 6 месяцев

Сообщений: 25860

Торрент-статистика

Пост 30-Дек-2013 18:49

[Цитировать]

Отбросы / Misfits (2013) HDTV 1080p [Сезон 5, серии 1-8 из 8] [Кубик в Кубе]- Год выпуска: 2013
Жанр: Комедия, Криминал, Фантастика
Перевод: Двухголосый закадровый, профессиональный
Озвучка / Автор перевода: Кубик в Кубе
Вид субтитров: Отсутствуют
Релиз группа: Clerkenwell Films

Дата мировой премьеры: 23.10.2013
Дата российской премьеры: 24.10.2013
Режиссер: Том Харпер, Том Грин, Джонатан ван Тюллекен
Актеры: Роберт Шиэн, Иван Реон, Лорен Соча, Антония Томас, Натан Стюарт-Джарретт, Алекс Рид, Анна Коваль, Мишель Фэйрли, Майкл О’Биора, Джозеф Гилган, Крэйг Паркинсон, Мэттью МакНалти, Рут Негга, Джессика Браун-Финдлэй, Дэнни Сапани
Описание фильма:
Комедийно-фантастический сериал «Отбросы 5 сезон» продолжает знаменитый великобританский проект «Отбросы» (Misfits), в рамках которого уже вышло 4 сезона. Названный одним из самых смешных и хулиганских, этот проект существует с ноября 2009 года, когда зрители впервые увидели на экранах пятерых «трудных» подростков, которым предстояло перевоспитываться на трудовых работах и… пользоваться своими удивительными суперспособностями. Сюжет сериала «Отбросы 5 сезон» до последнего момента остается настоящей интригой от создателей проекта. Известно только, что старые актеры, ставшие любимчиками зрителей в 1-3 сезонах, по-прежнему не собираются возвращаться в «Отбросы». А значит, поклонников сериала ждут новые встречи с героями 4-го сезона. Единственным исключением, возможно, станет Лорен Сока, исполнительница роли Келли. Кроме основного состава актеров создатели сериала приготовили для зрителей несколько приятных сюрпризов в составе героев «Отбросы 5 сезон». Так, например, по неподтвержденным данным в новых сериях можно будет увидеть таких актеров, как Норман Ридус и Сара Уэйн Келлис.

Дополнительная информация:

1 эпизод 23 октября 2013
2 эпизод 30 октября 2013
3 эпизод 6 ноября 2013
4 эпизод 13 ноября 2013
5 эпизод 20 ноября 2013
6 эпизод 27 ноября 2013
7 эпизод 4 декабря 2013
8 эпизод 12 декабря 2013
Сэмпл: Скачать
Продолжительность: ~ 00:45:00 серия
Качество видео: HDTV 1080p
Видеокодек: MPEG-4 AVC/H.264
Битрейт видео: ~ 5154 Кбит/с
Размер кадра: 1912x1072, 1908x1068, 1916x1076
Аудиокодек: AC3 2.0
Битрейт аудио #1: 192 Кбит/с - русский
Битрейт аудио #2: 192 Кбит/с - английский
Скриншоты:
       

MediaInfo

Эпизод 1

Общее
Уникальный идентификатор : 178072633901465292231452251467683151068 (0x85F78AB2CB291A51B9A1D84483233CDC)
Формат : Matroska
Версия формата : Version 4 / Version 2
Размер файла : 1.82 GiB
Продолжительность : 46mn 3s
Общий поток : 5651 Kbps
Дата кодирования : UTC 2013-11-16 14:59:34
Программа кодирования : mkvmerge v6.4.1 ('Omega Point') built on Sep 16 2013 22:05:10
Библиотека кодирования : libebml v1.3.0 + libmatroska v1.4.1
Video
Идентификатор : 1
Формат : AVC
Формат/Информация : Advanced Video Codec
Профиль формата : [url=mailto:High@L4.0]High@L4.0[/url]
Параметр CABAC формата : Yes
Параметр ReFrames формата : 4 frame2
Идентификатор кодека : V_MPEG4/ISO/AVC
Продолжительность : 46mn 3s
Битрейт : 5154 Kbps
Ширина : 1912 pixel3
Высота : 1072 pixel2
Соотношение сторон : 16:9
Режим частоты кадров : CFR
Частота кадров : 25.000 fps3
Цветовое пространство : YUV
Субдискретизация насыщенности : 4:2:0
Битовая глубина : 8 bit3
Тип развёртки : Progressive
Бит/(Пиксели*Кадры) : 0.101
Размер потока : 1.66 GiB (91%)
Язык : en
Default : Yes
Forced : No
Основные цвета : BT.709
Характеристики трансфера : BT.709
Коэффициенты матрицы : BT.709
Audio #1
Идентификатор : 2
Формат : AC-3
Формат/Информация : Audio Coding 3
Расширение режима : CM (complete main)
Параметр Endianness формата : Big
Идентификатор кодека : A_AC3
Продолжительность : 46mn 3s
Вид битрейта : CBR
Битрейт : 192 Kbps
Каналы : 2 channel2
Расположение каналов : Front: L R
Частота : 48.0 KHz
Битовая глубина : 16 bit3
Метод сжатия : Lossy
Размер потока : 63.3 MiB (3%)
Заголовок : Кубик в Кубе
Язык : ru
Default : Yes
Forced : No
Audio #2
Идентификатор : 3
Формат : AC-3
Формат/Информация : Audio Coding 3
Расширение режима : CM (complete main)
Параметр Endianness формата : Big
Идентификатор кодека : A_AC3
Продолжительность : 46mn 3s
Вид битрейта : CBR
Битрейт : 192 Kbps
Каналы : 2 channel2
Расположение каналов : Front: L R
Частота : 48.0 KHz
Битовая глубина : 16 bit3
Метод сжатия : Lossy
Размер потока : 63.3 MiB (3%)
Язык : en
Default : No
Forced : No

Эпизод 2

Общее
Уникальный идентификатор : 182637955201760268550054229397296566485 (0x8966CA6AB0D87C72B06651DF0A96D0D5)
Формат : Matroska
Версия формата : Version 4 / Version 2
Размер файла : 1.83 GiB
Продолжительность : 46mn 50s
Общий поток : 5589 Kbps
Дата кодирования : UTC 2013-11-16 15:04:41
Программа кодирования : mkvmerge v6.4.1 ('Omega Point') built on Sep 16 2013 22:05:10
Библиотека кодирования : libebml v1.3.0 + libmatroska v1.4.1
Video
Идентификатор : 1
Формат : AVC
Формат/Информация : Advanced Video Codec
Профиль формата : [url=mailto:High@L4.0]High@L4.0[/url]
Параметр CABAC формата : Yes
Параметр ReFrames формата : 4 frame2
Идентификатор кодека : V_MPEG4/ISO/AVC
Продолжительность : 46mn 50s
Битрейт : 5093 Kbps
Ширина : 1908 pixel3
Высота : 1068 pixel3
Соотношение сторон : 16:9
Режим частоты кадров : CFR
Частота кадров : 25.000 fps3
Цветовое пространство : YUV
Субдискретизация насыщенности : 4:2:0
Битовая глубина : 8 bit3
Тип развёртки : Progressive
Бит/(Пиксели*Кадры) : 0.100
Размер потока : 1.67 GiB (91%)
Язык : en
Default : Yes
Forced : No
Основные цвета : BT.709
Характеристики трансфера : BT.709
Коэффициенты матрицы : BT.709
Audio #1
Идентификатор : 2
Формат : AC-3
Формат/Информация : Audio Coding 3
Расширение режима : CM (complete main)
Параметр Endianness формата : Big
Идентификатор кодека : A_AC3
Продолжительность : 46mn 50s
Вид битрейта : CBR
Битрейт : 192 Kbps
Каналы : 2 channel2
Расположение каналов : Front: L R
Частота : 48.0 KHz
Битовая глубина : 16 bit3
Метод сжатия : Lossy
Размер потока : 64.3 MiB (3%)
Заголовок : Кубик в Кубе
Язык : ru
Default : Yes
Forced : No
Audio #2
Идентификатор : 3
Формат : AC-3
Формат/Информация : Audio Coding 3
Расширение режима : CM (complete main)
Параметр Endianness формата : Big
Идентификатор кодека : A_AC3
Продолжительность : 46mn 50s
Вид битрейта : CBR
Битрейт : 192 Kbps
Каналы : 2 channel2
Расположение каналов : Front: L R
Частота : 48.0 KHz
Битовая глубина : 16 bit3
Метод сжатия : Lossy
Размер потока : 64.3 MiB (3%)
Язык : en
Default : No
Forced : No

Эпизод 3

Общее
Уникальный идентификатор : 251436174918877628183885943938983615945 (0xBD28D888D43B68F79BBA008C54035DC9)
Формат : Matroska
Версия формата : Version 4 / Version 2
Размер файла : 1.83 GiB
Продолжительность : 48mn 1s
Общий поток : 5455 Kbps
Дата кодирования : UTC 2013-11-16 15:08:55
Программа кодирования : mkvmerge v6.4.1 ('Omega Point') built on Sep 16 2013 22:05:10
Библиотека кодирования : libebml v1.3.0 + libmatroska v1.4.1
Video
Идентификатор : 1
Формат : AVC
Формат/Информация : Advanced Video Codec
Профиль формата : [url=mailto:High@L4.0]High@L4.0[/url]
Параметр CABAC формата : Yes
Параметр ReFrames формата : 4 frame2
Идентификатор кодека : V_MPEG4/ISO/AVC
Продолжительность : 48mn 1s
Битрейт : 4963 Kbps
Ширина : 1920 pixel3
Высота : 1080 pixel3
Соотношение сторон : 16:9
Режим частоты кадров : CFR
Частота кадров : 25.000 fps3
Цветовое пространство : YUV
Субдискретизация насыщенности : 4:2:0
Битовая глубина : 8 bit3
Тип развёртки : Progressive
Бит/(Пиксели*Кадры) : 0.096
Размер потока : 1.66 GiB (91%)
Язык : en
Default : Yes
Forced : No
Основные цвета : BT.709
Характеристики трансфера : BT.709
Коэффициенты матрицы : BT.709
Audio #1
Идентификатор : 2
Формат : AC-3
Формат/Информация : Audio Coding 3
Расширение режима : CM (complete main)
Параметр Endianness формата : Big
Идентификатор кодека : A_AC3
Продолжительность : 48mn 1s
Вид битрейта : CBR
Битрейт : 192 Kbps
Каналы : 2 channel2
Расположение каналов : Front: L R
Частота : 48.0 KHz
Битовая глубина : 16 bit3
Метод сжатия : Lossy
Размер потока : 65.9 MiB (4%)
Заголовок : Кубик в Кубе
Язык : ru
Default : Yes
Forced : No
Audio #2
Идентификатор : 3
Формат : AC-3
Формат/Информация : Audio Coding 3
Расширение режима : CM (complete main)
Параметр Endianness формата : Big
Идентификатор кодека : A_AC3
Продолжительность : 48mn 1s
Вид битрейта : CBR
Битрейт : 192 Kbps
Каналы : 2 channel2
Расположение каналов : Front: L R
Частота : 48.0 KHz
Битовая глубина : 16 bit3
Метод сжатия : Lossy
Размер потока : 65.9 MiB (4%)
Язык : en
Default : No
Forced : No

Эпизод 4

Общее
Уникальный идентификатор : 189751404240676895870055515477278055857 (0x8EC0CA88429849B486ABFBC221E9DDB1)
Формат : Matroska
Версия формата : Version 4 / Version 2
Размер файла : 1.93 GiB
Продолжительность : 48mn 28s
Общий поток : 5711 Kbps
Дата кодирования : UTC 2013-11-16 15:14:01
Программа кодирования : mkvmerge v6.4.1 ('Omega Point') built on Sep 16 2013 22:05:10
Библиотека кодирования : libebml v1.3.0 + libmatroska v1.4.1
Video
Идентификатор : 1
Формат : AVC
Формат/Информация : Advanced Video Codec
Профиль формата : [url=mailto:High@L4.0]High@L4.0[/url]
Параметр CABAC формата : Yes
Параметр ReFrames формата : 4 frame2
Идентификатор кодека : V_MPEG4/ISO/AVC
Продолжительность : 48mn 28s
Битрейт : 5213 Kbps
Ширина : 1916 pixel3
Высота : 1076 pixel3
Соотношение сторон : 16:9
Режим частоты кадров : CFR
Частота кадров : 25.000 fps3
Цветовое пространство : YUV
Субдискретизация насыщенности : 4:2:0
Битовая глубина : 8 bit3
Тип развёртки : Progressive
Бит/(Пиксели*Кадры) : 0.101
Размер потока : 1.76 GiB (91%)
Язык : en
Default : Yes
Forced : No
Основные цвета : BT.709
Характеристики трансфера : BT.709
Коэффициенты матрицы : BT.709
Audio #1
Идентификатор : 2
Формат : AC-3
Формат/Информация : Audio Coding 3
Расширение режима : CM (complete main)
Параметр Endianness формата : Big
Идентификатор кодека : A_AC3
Продолжительность : 48mn 28s
Вид битрейта : CBR
Битрейт : 192 Kbps
Каналы : 2 channel2
Расположение каналов : Front: L R
Частота : 48.0 KHz
Битовая глубина : 16 bit3
Метод сжатия : Lossy
Размер потока : 66.6 MiB (3%)
Заголовок : Кубик в Кубе
Язык : ru
Default : Yes
Forced : No
Audio #2
Идентификатор : 3
Формат : AC-3
Формат/Информация : Audio Coding 3
Расширение режима : CM (complete main)
Параметр Endianness формата : Big
Идентификатор кодека : A_AC3
Продолжительность : 48mn 28s
Вид битрейта : CBR
Битрейт : 192 Kbps
Каналы : 2 channel2
Расположение каналов : Front: L R
Частота : 48.0 KHz
Битовая глубина : 16 bit3
Метод сжатия : Lossy
Размер потока : 66.6 MiB (3%)
Язык : en
Default : No
Forced : No

Эпизод 5

Общее
Уникальный идентификатор : 203250977697357952871084599005483859697 (0x98E8B6E40DE6515EA2D35512BB737EF1)
Формат : Matroska
Версия формата : Version 4 / Version 2
Размер файла : 1.77 GiB
Продолжительность : 48mn 9s
Общий поток : 5247 Kbps
Дата кодирования : UTC 2013-12-10 16:04:30
Программа кодирования : mkvmerge v6.5.0 ('Isn't she lovely') built on Oct 20 2013 12:50:05
Библиотека кодирования : libebml v1.3.0 + libmatroska v1.4.1
Video
Идентификатор : 1
Формат : AVC
Формат/Информация : Advanced Video Codec
Профиль формата : [url=mailto:High@L4.0]High@L4.0[/url]
Параметр CABAC формата : Yes
Параметр ReFrames формата : 4 frame2
Идентификатор кодека : V_MPEG4/ISO/AVC
Продолжительность : 48mn 9s
Битрейт : 4759 Kbps
Ширина : 1912 pixel3
Высота : 1072 pixel2
Соотношение сторон : 16:9
Режим частоты кадров : CFR
Частота кадров : 25.000 fps3
Цветовое пространство : YUV
Субдискретизация насыщенности : 4:2:0
Битовая глубина : 8 bit3
Тип развёртки : Progressive
Бит/(Пиксели*Кадры) : 0.093
Размер потока : 1.60 GiB (91%)
Язык : en
Default : Yes
Forced : No
Основные цвета : BT.709
Характеристики трансфера : BT.709
Коэффициенты матрицы : BT.709
Audio #1
Идентификатор : 2
Формат : AC-3
Формат/Информация : Audio Coding 3
Расширение режима : CM (complete main)
Параметр Endianness формата : Big
Идентификатор кодека : A_AC3
Продолжительность : 48mn 9s
Вид битрейта : CBR
Битрейт : 192 Kbps
Каналы : 2 channel2
Расположение каналов : Front: L R
Частота : 48.0 KHz
Битовая глубина : 16 bit3
Метод сжатия : Lossy
Размер потока : 66.1 MiB (4%)
Язык : ru
Default : Yes
Forced : No
Audio #2
Идентификатор : 3
Формат : AC-3
Формат/Информация : Audio Coding 3
Расширение режима : CM (complete main)
Параметр Endianness формата : Big
Идентификатор кодека : A_AC3
Продолжительность : 48mn 9s
Вид битрейта : CBR
Битрейт : 192 Kbps
Каналы : 2 channel2
Расположение каналов : Front: L R
Частота : 48.0 KHz
Битовая глубина : 16 bit3
Метод сжатия : Lossy
Размер потока : 66.1 MiB (4%)
Язык : en
Default : No
Forced : No

Эпизод 6

Общее
Уникальный идентификатор : 240343966518117562394312615105914130693 (0xB4D0906FDEC8DBFC89864DD63396D105)
Формат : Matroska
Версия формата : Version 4 / Version 2
Размер файла : 1.79 GiB
Продолжительность : 47mn 9s
Общий поток : 5429 Kbps
Дата кодирования : UTC 2013-12-10 16:11:55
Программа кодирования : mkvmerge v6.5.0 ('Isn't she lovely') built on Oct 20 2013 12:50:05
Библиотека кодирования : libebml v1.3.0 + libmatroska v1.4.1
Video
Идентификатор : 1
Формат : AVC
Формат/Информация : Advanced Video Codec
Профиль формата : [url=mailto:High@L4.0]High@L4.0[/url]
Параметр CABAC формата : Yes
Параметр ReFrames формата : 4 frame2
Идентификатор кодека : V_MPEG4/ISO/AVC
Продолжительность : 47mn 9s
Битрейт : 4937 Kbps
Ширина : 1916 pixel3
Высота : 1076 pixel3
Соотношение сторон : 16:9
Режим частоты кадров : CFR
Частота кадров : 25.000 fps3
Цветовое пространство : YUV
Субдискретизация насыщенности : 4:2:0
Битовая глубина : 8 bit3
Тип развёртки : Progressive
Бит/(Пиксели*Кадры) : 0.096
Размер потока : 1.63 GiB (91%)
Язык : en
Default : Yes
Forced : No
Основные цвета : BT.709
Характеристики трансфера : BT.709
Коэффициенты матрицы : BT.709
Audio #1
Идентификатор : 2
Формат : AC-3
Формат/Информация : Audio Coding 3
Расширение режима : CM (complete main)
Параметр Endianness формата : Big
Идентификатор кодека : A_AC3
Продолжительность : 47mn 9s
Вид битрейта : CBR
Битрейт : 192 Kbps
Каналы : 2 channel2
Расположение каналов : Front: L R
Частота : 48.0 KHz
Битовая глубина : 16 bit3
Метод сжатия : Lossy
Размер потока : 64.8 MiB (4%)
Язык : ru
Default : Yes
Forced : No
Audio #2
Идентификатор : 3
Формат : AC-3
Формат/Информация : Audio Coding 3
Расширение режима : CM (complete main)
Параметр Endianness формата : Big
Идентификатор кодека : A_AC3
Продолжительность : 47mn 9s
Вид битрейта : CBR
Битрейт : 192 Kbps
Каналы : 2 channel2
Расположение каналов : Front: L R
Частота : 48.0 KHz
Битовая глубина : 16 bit3
Метод сжатия : Lossy
Размер потока : 64.8 MiB (4%)
Язык : en
Default : No
Forced : No

Эпизод 7

Общее
Уникальный идентификатор : 238031740184387561289436959656638614345 (0xB3133EE087F0D5EAB0E80B2312A30B49)
Формат : Matroska
Версия формата : Version 4 / Version 2
Размер файла : 1.68 GiB
Продолжительность : 45mn 59s
Общий поток : 5222 Kbps
Дата кодирования : UTC 2013-12-10 16:18:27
Программа кодирования : mkvmerge v6.5.0 ('Isn't she lovely') built on Oct 20 2013 12:50:05
Библиотека кодирования : libebml v1.3.0 + libmatroska v1.4.1
Video
Идентификатор : 1
Формат : AVC
Формат/Информация : Advanced Video Codec
Профиль формата : [url=mailto:High@L4.0]High@L4.0[/url]
Параметр CABAC формата : Yes
Параметр ReFrames формата : 4 frame2
Идентификатор кодека : V_MPEG4/ISO/AVC
Продолжительность : 45mn 59s
Битрейт : 4734 Kbps
Ширина : 1920 pixel3
Высота : 1080 pixel3
Соотношение сторон : 16:9
Режим частоты кадров : CFR
Частота кадров : 25.000 fps3
Цветовое пространство : YUV
Субдискретизация насыщенности : 4:2:0
Битовая глубина : 8 bit3
Тип развёртки : Progressive
Бит/(Пиксели*Кадры) : 0.091
Размер потока : 1.52 GiB (91%)
Язык : en
Default : Yes
Forced : No
Основные цвета : BT.709
Характеристики трансфера : BT.709
Коэффициенты матрицы : BT.709
Audio #1
Идентификатор : 2
Формат : AC-3
Формат/Информация : Audio Coding 3
Расширение режима : CM (complete main)
Параметр Endianness формата : Big
Идентификатор кодека : A_AC3
Продолжительность : 45mn 59s
Вид битрейта : CBR
Битрейт : 192 Kbps
Каналы : 2 channel2
Расположение каналов : Front: L R
Частота : 48.0 KHz
Битовая глубина : 16 bit3
Метод сжатия : Lossy
Размер потока : 63.2 MiB (4%)
Язык : ru
Default : Yes
Forced : No
Audio #2
Идентификатор : 3
Формат : AC-3
Формат/Информация : Audio Coding 3
Расширение режима : CM (complete main)
Параметр Endianness формата : Big
Идентификатор кодека : A_AC3
Продолжительность : 45mn 59s
Вид битрейта : CBR
Битрейт : 192 Kbps
Каналы : 2 channel2
Расположение каналов : Front: L R
Частота : 48.0 KHz
Битовая глубина : 16 bit3
Метод сжатия : Lossy
Размер потока : 63.2 MiB (4%)
Язык : en
Default : No
Forced : No

Эпизод 8

Общее
Уникальный идентификатор : 237814930658910702907125889340473114347 (0xB2E97D5798358E7FB3912CA1D3F47EEB)
Формат : Matroska
Версия формата : Version 4 / Version 2
Размер файла : 1.80 GiB
Продолжительность : 46mn 12s
Общий поток : 5589 Kbps
Дата кодирования : UTC 2013-12-12 09:09:11
Программа кодирования : mkvmerge v6.5.0 ('Isn't she lovely') built on Oct 20 2013 12:50:05
Библиотека кодирования : libebml v1.3.0 + libmatroska v1.4.1
Video
Идентификатор : 1
Формат : AVC
Формат/Информация : Advanced Video Codec
Профиль формата : [url=mailto:High@L4.0]High@L4.0[/url]
Параметр CABAC формата : Yes
Параметр ReFrames формата : 4 frame2
Идентификатор кодека : V_MPEG4/ISO/AVC
Продолжительность : 46mn 12s
Битрейт : 5094 Kbps
Ширина : 1916 pixel3
Высота : 1076 pixel3
Соотношение сторон : 16:9
Режим частоты кадров : CFR
Частота кадров : 25.000 fps3
Цветовое пространство : YUV
Субдискретизация насыщенности : 4:2:0
Битовая глубина : 8 bit3
Тип развёртки : Progressive
Бит/(Пиксели*Кадры) : 0.099
Размер потока : 1.64 GiB (91%)
Язык : en
Default : Yes
Forced : No
Основные цвета : BT.709
Характеристики трансфера : BT.709
Коэффициенты матрицы : BT.709
Audio #1
Идентификатор : 2
Формат : AC-3
Формат/Информация : Audio Coding 3
Расширение режима : CM (complete main)
Параметр Endianness формата : Big
Идентификатор кодека : A_AC3
Продолжительность : 46mn 12s
Вид битрейта : CBR
Битрейт : 192 Kbps
Каналы : 2 channel2
Расположение каналов : Front: L R
Частота : 48.0 KHz
Битовая глубина : 16 bit3
Метод сжатия : Lossy
Размер потока : 63.4 MiB (3%)
Язык : ru
Default : Yes
Forced : No
Audio #2
Идентификатор : 3
Формат : AC-3
Формат/Информация : Audio Coding 3
Расширение режима : CM (complete main)
Параметр Endianness формата : Big
Идентификатор кодека : A_AC3
Продолжительность : 46mn 12s
Вид битрейта : CBR
Битрейт : 192 Kbps
Каналы : 2 channel2
Расположение каналов : Front: L R
Частота : 48.0 KHz
Битовая глубина : 16 bit3
Метод сжатия : Lossy
Размер потока : 63.4 MiB (3%)
Язык : en
Default : No
Forced : No
Вне форума [Профиль] [ЛС]
Показать сообщения:    
Ответить на тему

Текущее время: Сегодня 20:25

Часовой пояс: GMT + 3



Вы не можете начинать темы
Вы не можете отвечать на сообщения
Вы не можете редактировать свои сообщения
Вы не можете удалять свои сообщения
Вы не можете голосовать в опросах
Вы не можете прикреплять файлы к сообщениям
Вы не можете скачивать файлы