Сегодня идет свободное скачивание без начисления Download

Симпсоны / The Simpsons / Сезон: 16 / Серии: 1 (21) (Мэтт Гроунинг / Matt Groening) [2004, Приключения, комедия, сатира, BDRip 720p] DVO (РЕН-ТВ) + Original + Subs (Eng)

Ответить на тему
 
Автор
Сообщение

Omen ®

Стаж: 5 лет

Сообщений: 190529

Торрент-статистика

Пост 28-Дек-2013 23:00

[Цитировать]

Симпсоны / The Simpsons -Оригинальное название: The Simpsons
Русское название: Симпсоны
Год выпуска: 2004
Страна: США
Жанр: Приключения, комедия, сатира
Продолжительность: ~22 минуты (серия)
Перевод: Профессиональный (двухголосый закадровый) студия "Кипарис" по заказу РЕН-ТВ
Трансляция:
Роли озвучивали: Ирина Савина, Борис Быстров
Субтитры: есть (английские [PSDH])
-Производство: FOX
Режиссёр: Мэтт Гроунинг / Matt Groening
-Роли озвучивали: Дэн Кастелланета, Джули Кавнер, Нэнси Картрайт, Ярдли Смит, Гарри Ширер, Хэнк Азария, Памела Хейден, Тресс МакНилл, Карл Видерготт, Мэгги Росвэлл и др.-Описание: Симпсоны живут в вымышленном городе Спрингфилд, со своим обществом и историей. Гомер - отец семейства, который дает плохие советы и работает инспектором безопасности на атомной электростанции; Мардж - любящая мать и жена, старается сохранить спокойствие в семье; Барт - 10 летний хулиган; Лиза - философский 8-летний ребенок; и Мэгги - младенец, который общается посредством соски.-РЕЛИЗ ОТ: V.SERIJ2013-Спасибо Den.S-92 за запись звука с телеканала 2x2, CtrlHD за рип и мне за синхронизацию аудиодорожки.-Качество: BDRip 720p
Формат: MKV
Видео кодек: h264
Аудио кодек: AC3, DTS
Видео: MPEG4 Video (H264) 960x720 23.976fps ~4300Kbps
Аудио:
  • русская [РЕН-ТВ]: Dolby AC3 48000Hz stereo 192Kbps,
  • английская: DTS 48000Hz 6ch 1510Kbps
Скриншоты:
-

Список серий

16 сезон (2004 год):
01. Treehouse of Horror XV

Media Info

Код:
General
UniqueID                         : 249614481224722434630039296764005525182 (0xBBCA0019D7E42111812514ED88B726BE)
Complete name                    : F:\Мои документы\Вадим\Моё видео (Вадим)\The Simpsons Season 16 (BDRip 720p)\01. Treehouse of Horror XV.mkv
Format                           : Matroska
File size                        : 665 MiB
Duration                         : 22mn 1s
Overall bit rate                 : 4 219 Kbps
Encoded date                     : UTC 2013-12-27 05:02:07
Writing application              : mkvmerge v5.8.0 ('No Sleep / Pillow') built on Sep  2 2012 15:37:04
Writing library                  : libebml v1.2.3 + libmatroska v1.3.0
Video
ID                               : 1
Format                           : AVC
Format/Info                      : Advanced Video Codec
Format profile                   : High@L4.1
Format settings, CABAC           : Yes
Format settings, ReFrames        : 5 frames
Muxing mode                      : Header stripping
Codec ID                         : V_MPEG4/ISO/AVC
Duration                         : 22mn 1s
Bit rate                         : 3 911 Kbps
Width                            : 960 pixels
Height                           : 720 pixels
Display aspect ratio             : 4:3
Frame rate                       : 23.976 fps
Color space                      : YUV
Chroma subsampling               : 4:2:0
Bit depth                        : 8 bits
Scan type                        : Progressive
Bits/(Pixel*Frame)               : 0.236
Stream size                      : 616 MiB (93%)
Language                         : English
Audio #1
ID                               : 2
Format                           : AC-3
Format/Info                      : Audio Coding 3
Mode extension                   : CM (complete main)
Muxing mode                      : Header stripping
Codec ID                         : A_AC3
Duration                         : 22mn 1s
Bit rate mode                    : Constant
Bit rate                         : 192 Kbps
Channel(s)                       : 2 channels
Channel positions                : Front: L R
Sampling rate                    : 48.0 KHz
Bit depth                        : 16 bits
Compression mode                 : Lossy
Stream size                      : 30.2 MiB (5%)
Title                            : 2x2
Language                         : Russian
Audio #2
ID                               : 3
Format                           : DTS
Format/Info                      : Digital Theater Systems
Muxing mode                      : Header stripping
Codec ID                         : A_DTS
Bit rate mode                    : Constant
Bit rate                         : 32.0 Kbps
Channel(s)                       : 1 channel
Channel positions                : Mono
Sampling rate                    : 0
Bit depth                        : 16 bits
Compression mode                 : Lossy
Title                            : Original
Language                         : English
Text
ID                               : 4
Format                           : UTF-8
Codec ID                         : S_TEXT/UTF8
Codec ID/Info                    : UTF-8 Plain Text
Language                         : English
Menu
00:00:00.000                     : en:00:00:00.000
00:01:11.947                     : en:00:01:11.947
00:03:43.765                     : en:00:03:43.765
00:07:18.480                     : en:00:07:18.480
00:14:37.668                     : en:00:14:37.668
00:21:11.187                     : en:00:21:11.187
-
Вне форума [Профиль] [ЛС]
Показать сообщения:    
Ответить на тему

Текущее время: Сегодня 10:35

Часовой пояс: GMT + 3



Вы не можете начинать темы
Вы не можете отвечать на сообщения
Вы не можете редактировать свои сообщения
Вы не можете удалять свои сообщения
Вы не можете голосовать в опросах
Вы не можете прикреплять файлы к сообщениям
Вы не можете скачивать файлы