Сегодня идет свободное скачивание без начисления Download

Губка Боб Квадратные Штаны / SpongeBob SquarePants / Сезон: 8 / Серии: 1-23, 26 из 26 (Стивен Хилленбург / Stephen Hillenburg) [2011-2012, Мультипликация, DVDRip] Dub

Ответить на тему
 
Автор
Сообщение

Omen ®

Стаж: 4 года 10 месяцев

Сообщений: 190643

Торрент-статистика

Пост 27-Дек-2013 23:00

[Цитировать]

Губка Боб Квадратные Штаны / SpongeBob SquarePants
Страна: США
Жанр: Мультипликация
Продолжительность: ~ 11:00 серия
Год выпуска: 2011-2012
Перевод: Профессиональный (дублированный)
Русские субтитры: нет-Режиссёр: Стивен Хилленбург / Stephen Hillenburg
Описание: Кто проживает на дне океана? Спанч Боб Сквэр Пэнтс! Или просто Губка Боб квадратные штаны. Этот мультсериал был снят в студии Никелодеон и появился на экранах в 1999 году и сразу завоевал свое место под солнцем. На данный момент я думаю нет такого человека который бы не знал кто такой Губка Боб. Но если все-таки такие есть тогда рассказываю. На глубине океана существует город под названием Бикини Боттом там и происходит все действие. Главного героя зовут Спанч Боб или просто Губка Боб он работает в ресторане мистера Крабса. И уже давно мечтает о повышении. Умом губку само собой аниматоры и сценаристы наделять и не думали, живет себе так и живет.-СПАСИБО Саша Эндик за любезно предоставленные DVD диски.-Качество: DVDRip
Формат: MKV
Видео: AVC, 720x528 (4:3), 25.000 fps, 1 600 Kbps (0.168 bit/pixel)
Аудио 1: AC-3, 48.0 KHz, 2 ch, 192 Kbps, CBR (Russian)
Аудио 2: AC-3, 48.0 KHz, 2 ch, 192 Kbps, CBR (English)
Субтитры: отсутствуют
Семпл: Забираем тут

Список серий:

s8e01a - Accidents Will Happen
s8e01b - The Other Patty
s8e02a - Drive Thru
s8e02b - The Hot Shot
s8e03a - A Friendly Game
s8e03b - Sentimental Sponge
s8e04ab - Frozen Face-Off
s8e05a - Squidward's School for Grown Ups
s8e05b - Oral Report
s8e06a - Sweet and Sour Squid
s8e06b - The Googly Artiste
s8e07ab - A SquarePants Family Vacation
s8e08a - Patrick's Staycation
s8e08b - Walking the Plankton
s8e09a - Mooncation
s8e09b - Mr Krabs Takes a Vacation
s8e10ab - Ghoul Fools
s8e11a - Mermaid Man Begins
s8e11b - Plankton's Good Eye
s8e12a - Barnacle Face
s8e12b - Pet Sitter Pat
s8e13a - House Sittin' For Sandy
s8e13b - Smoothe Jazz At Bikini Bottom
s8e14a - Bubble Troubles
s8e14b - The Way Of The Sponge
s8e15a - The Krabby Patty That Ate Bikini Bottom
s8e15b - Bubble Buddy Returns
s8e16a - Restraining SpongeBob
s8e16b - Fiasco!
s8e17a - Are You Happy Now?
s8e17b - Planet of The Jellyfish
s8e18a - Free Samples
s8e18b - Home Sweet Rubble
s8e19a - Karen 2.0
s8e19b - InSPONEGiac
s8e20a - Face Freeze
s8e20b - Glove World R.I.P.
s8e21a - Squiditis
s8e21b - Demolition Doofus
s8e22a - Treats!
s8e22b - For Here or to Go
s8e23ab - It's a SpongeBob Christmas!
s8e26ab - Hello Bikini Bottom!

Внимание! Раздача ведется путем добавления новых серий

Внимание! Раздача ведётся путём добавления новых серий; при каждом добавлении создётся новый торрент. Чтобы начать докачку новой серии, пользователям необходимо сделать следующее:
(1) остановить скачивание,
(2) удалить старый торрент у себя из клиента (старые серии удалять не надо),
(3) скачать новый торрент и запустить его у себя в клиенте вместо старого, при этом указать клиенту путь в старую папку куда и должно происходить скачивание новых серий.
Ваш клиент при этом должен произвести хеширование (проверку) старой папки (если не производит сам - помогите ему сделать это), и будет докачивать только те серии которых у вас ещё нет. Старые серии при этом не удаляются, а продолжают раздаваться!
Eсли вы уже удалили старые серии, то предотвратить повторную закачку старых серий можно, отжав галочку в соответсвующих местах при запуске нового торрента. По возможности, желательно не удалять старые серии как можно дольше чтобы релизёр не столько продолжал раздавать старые серии, а смог сконцентрироваться на новых.

Подробные технические данные

Общее
Уникальный идентификатор : 201116030420148021261272019206597592277 (0x974D89DCFCB3635698BDD145156944D5)
Полное имя : G:\SpongeBob SquarePants 8 DVDRip\s8e16b - Fiasco!.mkv
Формат : Matroska
Версия формата : Version 4 / Version 2
Размер файла : 157 Мбайт
Продолжительность : 11 м.
Режим общего битрейта : Переменный
Общий поток : 1988 Кбит/сек
Дата кодирования : UTC 2013-12-26 13:31:41
Программа кодирования : mkvmerge v6.5.0 ('Isn't she lovely') built on Oct 20 2013 12:50:05
Библиотека кодирования : libebml v1.3.0 + libmatroska v1.4.1
Видео
Идентификатор : 1
Формат : AVC
Формат/Информация : Advanced Video Codec
Профиль формата : High@L4.0
Параметр CABAC формата : Да
Параметр ReFrames формата : 4 кадра
Идентификатор кодека : V_MPEG4/ISO/AVC
Продолжительность : 11 м.
Вид битрейта : Переменный
Битрейт : 1600 Кбит/сек
Максимальный битрейт : 40,0 Мбит/сек
Ширина : 720 пикселей
Высота : 528 пикселей
Соотношение сторон : 4:3
Режим частоты кадров : Постоянный
Частота кадров : 25,000 кадров/сек
Цветовое пространство : YUV
Субдискретизация насыщенности : 4:2:0
Битовая глубина : 8 бит
Тип развёртки : Прогрессивная
Бит/(Пиксели*Кадры) : 0.168
Размер потока : 124 Мбайт (79%)
Библиотека кодирования : x264 core 130 r2273 b3065e6
Настройки программы : cabac=1 / ref=3 / deblock=1:-1:-1 / analyse=0x3:0x133 / me=umh / subme=10 / psy=1 / psy_rd=1.00:0.10 / mixed_ref=1 / me_range=16 / chroma_me=1 / trellis=2 / 8x8dct=1 / cqm=0 / deadzone=21,11 / fast_pskip=0 / chroma_qp_offset=-3 / threads=6 / lookahead_threads=1 / sliced_threads=0 / nr=0 / decimate=1 / interlaced=0 / bluray_compat=0 / constrained_intra=0 / bframes=5 / b_pyramid=2 / b_adapt=2 / b_bias=0 / direct=3 / weightb=1 / open_gop=0 / weightp=2 / keyint=250 / keyint_min=25 / scenecut=40 / intra_refresh=0 / rc_lookahead=50 / rc=2pass / mbtree=1 / bitrate=1600 / ratetol=1.0 / qcomp=0.60 / qpmin=0 / qpmax=69 / qpstep=4 / cplxblur=20.0 / qblur=0.5 / ip_ratio=1.40 / aq=1:1.0
Язык : English
Default : Да
Forced : Нет
Аудио #1
Идентификатор : 2
Формат : AC-3
Формат/Информация : Audio Coding 3
Расширение режима : CM (complete main)
Параметр Endianness формата : Big
Идентификатор кодека : A_AC3
Продолжительность : 11 м.
Вид битрейта : Постоянный
Битрейт : 192 Кбит/сек
Каналы : 2 канала
Расположение каналов : Front: L R
Частота : 48,0 КГц
Битовая глубина : 16 бит
Метод сжатия : С потерями
Размер потока : 15,2 Мбайт (10%)
Язык : Russian
Default : Да
Forced : Нет
Аудио #2
Идентификатор : 3
Формат : AC-3
Формат/Информация : Audio Coding 3
Расширение режима : CM (complete main)
Параметр Endianness формата : Big
Идентификатор кодека : A_AC3
Продолжительность : 11 м.
Вид битрейта : Постоянный
Битрейт : 192 Кбит/сек
Каналы : 2 канала
Расположение каналов : Front: L R
Частота : 48,0 КГц
Битовая глубина : 16 бит
Метод сжатия : С потерями
Размер потока : 15,2 Мбайт (10%)
Язык : English
Default : Нет
Forced : Нет
Вне форума [Профиль] [ЛС]
Показать сообщения:    
Ответить на тему

Текущее время: Сегодня 03:54

Часовой пояс: GMT + 3



Вы не можете начинать темы
Вы не можете отвечать на сообщения
Вы не можете редактировать свои сообщения
Вы не можете удалять свои сообщения
Вы не можете голосовать в опросах
Вы не можете прикреплять файлы к сообщениям
Вы не можете скачивать файлы