Сегодня идет свободное скачивание без начисления Download

Безмолвие (Молчание, Молчуны) / Suskunlar (2012) SATRip [сезон 1 серии 1-5 из 16] turok1990 (обновляемая)

Ответить на тему
 
Автор
Сообщение

UndegraundMen ®

Стаж: 5 лет 7 месяцев

Сообщений: 25860

Торрент-статистика

Пост 27-Дек-2013 11:00

[Цитировать]

Безмолвие (Молчание, Молчуны) / Suskunlar (2012) SATRip [сезон 1 серии 1-5 из 16] (обновляемая)- Год выпуска: 2012
Жанр: Драма, Криминал, Триллер
Страна: Турция, Tim's Productions
Перевод: Одноголосый закадровый, любительский
Озвучка : turok1990, shachter58

Режиссер: Умур Турагай
Актеры: Мурат Йылдырым, Асли Энвер, Сарп Аккая, Берк Хакман, Гювен Мурат Акпинар, Тугай Мерджан, Реха Озджан, Мехмет Озгюр, Мурат Гарибагаоглу, Пелин Догру, Фатих Пашали, Мерт Асутай, Фират Албайрам
Описание фильма:
Их было четверо: Зеки, Биляль, Ибо, Эджевит. Они были вместе с детства. Все бы ничего, но непоправимая случайность меняет их жизни. Ребята оказываются в тюрьме. Там над ними издевались, избивали, резали и насиловали. Чтобы забыть этот кошмар, они решили разъехаться и никогда больше не встречаться. Но судьба снова сводит их.
Продолжительность: 5 х ~ 01:35:00
Качество видео: SATRip
Видеокодек: Xvid
Битрейт видео: ~1200 Кбит/с
Размер кадра: 720x400, 640x360
Аудиокодек: MP3
Битрейт аудио: 192 Кбит/с
Сэмпл: Скачать

MediaInfo

Формат : AVI
Формат/Информация : Audio Video Interleave
Размер файла : 890 Мбайт
Продолжительность : 1 ч. 28 м.
Общий поток : 1399 Кбит/сек
Видео
Идентификатор : 0
Формат : MPEG-4 Visual
Профиль формата : Advanced Simple@L5
Параметр BVOP формата : 2
Параметр QPel формата : Нет
Параметр GMC формата : Без точки перехода
Параметр матрицы формата : Default (H.263)
Идентификатор кодека : XVID
Идентификатор кодека/Подсказка : XviD
Продолжительность : 1 ч. 28 м.
Битрейт : 1197 Кбит/сек
Ширина : 720 пикселей
Высота : 400 пикселей
Соотношение сторон : 16:9
Частота кадров : 25,000 кадров/сек
Цветовое пространство : YUV
Субдискретизация насыщенности : 4:2:0
Битовая глубина : 8 бит
Тип развёртки : Прогрессивная
Метод сжатия : С потерями
Бит/(Пиксели*Кадры) : 0.166
Размер потока : 762 Мбайт (86%)
Библиотека кодирования : XviD 1.2.1 (UTC 2008-12-04)
Аудио
Идентификатор : 1
Формат : MPEG Audio
Версия формата : Version 1
Профиль формата : Layer 3
Идентификатор кодека : 55
Идентификатор кодека/Подсказка : MP3
Продолжительность : 1 ч. 28 м.
Вид битрейта : Постоянный
Битрейт : 192 Кбит/сек
Каналы : 2 канала
Частота : 44,1 КГц
Метод сжатия : С потерями
Размер потока : 122 Мбайт (14%)
Выравнивание : Разделение по промежуткам
Продолжительность промежутка : 40 мс. (1,00 видеокадр)
Время предзагрузки промежутка : 500 мс.

MediaInfo 2

Формат : AVI
Формат/Информация : Audio Video Interleave
Размер файла : 1006 Мбайт
Продолжительность : 1 ч. 41 м.
Общий поток : 1381 Кбит/сек
Программа кодирования : VirtualDubModRus 1.5.10.2 (build 2542/release)
Библиотека кодирования : VirtualDubMod build 2542/release
Видео
Идентификатор : 0
Формат : MPEG-4 Visual
Профиль формата : Simple@L1
Параметр BVOP формата : Нет
Параметр QPel формата : Нет
Параметр GMC формата : Без точки перехода
Параметр матрицы формата : Default (H.263)
Идентификатор кодека : XVID
Идентификатор кодека/Подсказка : XviD
Продолжительность : 1 ч. 41 м.
Битрейт : 1179 Кбит/сек
Ширина : 640 пикселей
Высота : 360 пикселей
Соотношение сторон : 16:9
Частота кадров : 25,000 кадров/сек
Цветовое пространство : YUV
Субдискретизация насыщенности : 4:2:0
Битовая глубина : 8 бит
Тип развёртки : Прогрессивная
Метод сжатия : С потерями
Бит/(Пиксели*Кадры) : 0.205
Размер потока : 859 Мбайт (85%)
Библиотека кодирования : Lavc52.108.0
Аудио
Идентификатор : 1
Формат : MPEG Audio
Версия формата : Version 1
Профиль формата : Layer 3
Идентификатор кодека : 55
Идентификатор кодека/Подсказка : MP3
Продолжительность : 1 ч. 41 м.
Вид битрейта : Постоянный
Битрейт : 192 Кбит/сек
Каналы : 2 канала
Частота : 44,1 КГц
Метод сжатия : С потерями
Размер потока : 140 Мбайт (14%)
Выравнивание : Разделение по промежуткам
Продолжительность промежутка : 40 мс. (1,00 видеокадр)
Время предзагрузки промежутка : 500 мс.

Внимание! Раздача ведётся путём добавления новых серий

Внимание! Раздача ведётся путём добавления новых серий; при каждом добавлении создаётся новый торрент.
Чтобы начать докачку новой серии, пользователям необходимо сделать следующее:
1. Остановить скачивание;
2. Удалить старый торрент у себя из клиента (старые серии удалять не надо);
3. Скачать новый торрент и запустить его у себя в клиенте вместо старого, при этом указать клиенту путь в старую папку куда и должно происходить скачивание новых серий. Ваш клиент при этом должен произвести хеширование (проверку) старой папки и будет докачивать только те серии, которых у вас ещё нет. Старые серии при этом не удаляются, а продолжают раздаваться! Eсли вы уже удалили старые серии, то предотвратить повторную закачку старых серий можно, отжав галочку в соответствующих местах при запуске нового торрента.
Скриншоты:
       
Время раздачи: 06-09, 15-24
Вне форума [Профиль] [ЛС]
Показать сообщения:    
Ответить на тему

Текущее время: Сегодня 11:03

Часовой пояс: GMT + 3



Вы не можете начинать темы
Вы не можете отвечать на сообщения
Вы не можете редактировать свои сообщения
Вы не можете удалять свои сообщения
Вы не можете голосовать в опросах
Вы не можете прикреплять файлы к сообщениям
Вы не можете скачивать файлы