Сегодня идет свободное скачивание без начисления Download

Записки юного врача / A Young Doctor\'s Notebook (2013) WEB-DLRip (Сезон 2 / Серии 1 из ??) LostFilm (oбновляемая)

Ответить на тему
 
Автор
Сообщение

UndegraundMen ®

Стаж: 5 лет 9 месяцев

Сообщений: 25860

Торрент-статистика

Пост 26-Дек-2013 23:42

[Цитировать]

Записки юного врача / A Young Doctor's Notebook (2013) WEB-DLRip (Сезон 2 / Серии 1 из ??) LostFilm (oбновляемая)- Год выпуска: 2013
Страна: Великобритания
Жанр: Драма, Комедия
Перевод: Многоголосый закадровый, профессиональный - LostFilm


Режиссер: Алекс Хардкасл, Роберт МакКиллоп
Актеры: Джон Хэмм, Дэниэл Рэдклифф, Адам Годли, Крис Найт, Рианна Хосмер, Сьюзи Кэйн, Ребекка Гетингс и др.
Описание фильма:
В неспокойное революционное время юный врач Бомгард Владимир прибыл в маленькую деревушку, где принялся лечить местных жителей. Главному герою сериала приходится весьма нелегко, ведь он вынужден сталкиваться с трудностями своей профессии, а также постоянными суевериями своих пациентов.
Продолжительность: ~00:22:00 серия
Качество видео: WEB-DLRip 720p
Видеокодек: XviD
Формат: AVI
Битрейт видео: ~927 kb/s
Размер кадра: 720x400 (16:9)
Аудио Rus: (MPEG Layer 3, 48,0 kHz, 2 ch, 192 kb/s) - многоголосый закадровый Сэмпл

MediaInfo

Общее
Полное имя : D:\Записки юного врача (Сезон 2) A Young Doctor's Notebook (2013) WEB-DLRip - LostFilm\A.Young.Doctors.Notebook.S02E01.rus.LostFilm.TV.avi
Формат : AVI
Формат/Информация : Audio Video Interleave
Размер файла : 179 Мбайт
Продолжительность : 22 м.
Режим общего битрейта : Переменный
Общий поток : 1126 Кбит/сек
Программа кодирования : Nandub v1.0rc2
Библиотека кодирования : Nandub build 1853/release
Видео
Идентификатор : 0
Формат : MPEG-4 Visual
Профиль формата : Simple@L3
Параметр BVOP формата : Нет
Параметр QPel формата : Нет
Параметр GMC формата : Без точки перехода
Параметр матрицы формата : Default (H.263)
Идентификатор кодека : XVID
Идентификатор кодека/Подсказка : XviD
Продолжительность : 22 м.
Битрейт : 927 Кбит/сек
Ширина : 720 пикселей
Высота : 400 пикселей
Соотношение сторон : 16:9
Частота кадров : 25,000 кадров/сек
Цветовое пространство : YUV
Субдискретизация насыщенности : 4:2:0
Битовая глубина : 8 бит
Тип развёртки : Прогрессивная
Метод сжатия : С потерями
Бит/(Пиксели*Кадры) : 0.129
Размер потока : 147 Мбайт (82%)
Библиотека кодирования : XviD 1.2.1 (UTC 2008-12-04)
Аудио
Идентификатор : 1
Формат : MPEG Audio
Версия формата : Version 1
Профиль формата : Layer 3
Режим : Joint stereo
Идентификатор кодека : 55
Идентификатор кодека/Подсказка : MP3
Продолжительность : 22 м.
Вид битрейта : Переменный
Битрейт : 192 Кбит/сек
Каналы : 2 канала
Частота : 48,0 КГц
Метод сжатия : С потерями
Размер потока : 29,5 Мбайт (17%)
Выравнивание : Соединение по промежуткам
Продолжительность промежутка : 24 мс. (0,60 видеокадр)
Время предзагрузки промежутка : 545 мс.
Библиотека кодирования : LAME3.97b
Настройки программы : -m j -V 4 -q 3 -lowpass 18.6 --abr 192

Раздача ведётся путём добавления новых серий

Раздача ведётся путём добавления новых серий; при каждом добавлении создаётся новый торрент. Чтобы начать докачку новой серии, пользователям необходимо сделать следующее:
(1) остановить скачивание,
(2) удалить старый торрент у себя из клиента (старые серии удалять не надо),
(3) скачать новый торрент и запустить его у себя в клиенте вместо старого, при этом указать клиенту путь в старую папку куда и должно происходить скачивание новых серий.
Ваш клиент при этом должен произвести хеширование (проверку) старой папки (если не производит сам - помогите ему сделать это), и будет докачивать только те серии которых у вас ещё нет. Старые серии при этом не удаляются, а продолжают раздаваться!
Eсли вы уже удалили старые серии, то предотвратить повторную закачку старых серий можно, отжав галочку в соответствующих местах при запуске нового торрента. По возможности, желательно не удалять старые серии как можно дольше чтобы релизёр не столько продолжал раздавать старые серии, а смог сконцентрироваться на новых.
Скриншоты:
         
Время раздачи: 24/7 - круглосуточно (по возможности)
Вне форума [Профиль] [ЛС]
Показать сообщения:    
Ответить на тему

Текущее время: Сегодня 02:21

Часовой пояс: GMT + 3



Вы не можете начинать темы
Вы не можете отвечать на сообщения
Вы не можете редактировать свои сообщения
Вы не можете удалять свои сообщения
Вы не можете голосовать в опросах
Вы не можете прикреплять файлы к сообщениям
Вы не можете скачивать файлы