Today is a free download without charge Download

NG. Суперсооружения Третьего рейха / Nazi megastructures (2013) HDTVRip [H.264/720p-LQ] [1 сезон: 4 серия из 6]

Reply to topic
 
Author
Message

UndegraundMen ®

Longevity: 6 years 9 months

Posts: 25145

Торрент-статистика

Post 24-Dec-2013 23:00

[Quote]

NG. Суперсооружения Третьего рейха / Nazi megastructures (2013) HDTVRip [H.264/720p-LQ] [1 сезон: 4 серия из 6]- Режиссер / Телекомпания: National Geographic
Страна: США
Год выпуска: 2013
Жанр: Документальный, научно-познавательный, техника, строительство
Описание: В стремлении к мировому господству нацисты построили некоторые из самых амбициозных и смелых единиц боевой техники, а также разработали самые злодейские технологии в истории; создали продвинутые машины террора, огромные оборонительные системы и оружие массового уничтожения, чтобы завоевать континент и выиграть войну. Этот сериал о Второй Мировой войне рассказывает о ней с уникальной, новой точки зрения. В 6 эпизодах мы раскрываем секреты 6 знаковых инженерных Мегасооружений нацистов, рассказывая истории дизайнеров и инженеров, которые помогли создать их, и, показывая, как эти сооружения дали направление одному из самых смертоносных конфликтов в истории.
Серия 3. Супертанки / Supertanks На заброшенной нацистской военной базе скрываются реликвии удивительного проекта по разработке секретного оружия. Впечатляет сам размер помещения, где стояли эти танки. Высота танка по планам должна была составить около 11 метров. Это почти высота четырёхэтажного дома. Это должен был быть не просто танк, а мегатанк, созданный для того, чтобы смять и вселить ужас во врагов Третьего Рейха. Элитные танковые экипажи проходили специальную подготовку, чтобы в полной мере овладеть этим грозным оружием и использовать его преимущества на поле боя. Это невероятная история супертанков Гитлера, инженеров, создавших их и танкистов, которые вели их в бой.
Продолжительность: 00:43:58
Перевод: Одноголосый закадровый (профессиональный)
Видеокодек: MPEG-4 AVC/H.264
Битрейт видео: ~3 399 Кбит/с
Размер кадра: 1280 x 720
Качество видео: HDTVRip [720p-LQ]
Аудио:
1. [русский] AC3, 2.0 ch, 192 Кбит/с
2. [english] AC3, 2.0 ch, 384 Кбит/с

MediaInfo

General
Unique ID : 234068485432401761479510852722780553216 (0xB017F354D4A5862193DC0C45309C4000)
Complete name : D:\TORRENTS\!!! РЕЛИЗЫ\NG.Nazi.Megastructures.04.Super.Tanks.HDTV.720p.mkv
Format : Matroska
Format version : Version 2
File size : 1.25 GiB
Duration : 43mn 58s
Overall bit rate : 4 056 Kbps
Encoded date : UTC 2013-12-24 18:11:01
Writing application : mkvmerge v5.8.0 ('No Sleep / Pillow') built on Sep 2 2012 15:37:04
Writing library : libebml v1.2.3 + libmatroska v1.3.0
Video
ID : 1
Format : AVC
Format/Info : Advanced Video Codec
Format profile : [url=mailto:High@L4.1]High@L4.1[/url]
Format settings, CABAC : Yes
Format settings, ReFrames : 5 frames
Codec ID : V_MPEG4/ISO/AVC
Duration : 43mn 58s
Bit rate : 3 399 Kbps
Width : 1 280 pixels
Height : 720 pixels
Display aspect ratio : 16:9
Frame rate mode : Constant
Frame rate : 25.000 fps
Color space : YUV
Chroma subsampling : 4:2:0
Bit depth : 8 bits
Scan type : Progressive
Bits/(Pixel*Frame) : 0.148
Stream size : 1.04 GiB (84%)
Writing library : x264 core 140 r2377 1ca7bb9
Encoding settings : cabac=1 / ref=5 / deblock=1:0:0 / analyse=0x3:0x113 / me=umh / subme=8 / psy=1 / psy_rd=1.00:0.00 / mixed_ref=1 / me_range=16 / chroma_me=1 / trellis=1 / 8x8dct=1 / cqm=0 / deadzone=21,11 / fast_pskip=1 / chroma_qp_offset=-2 / threads=12 / lookahead_threads=2 / sliced_threads=0 / nr=0 / decimate=1 / interlaced=0 / bluray_compat=0 / constrained_intra=0 / bframes=3 / b_pyramid=2 / b_adapt=2 / b_bias=0 / direct=3 / weightb=1 / open_gop=0 / weightp=2 / keyint=250 / keyint_min=25 / scenecut=40 / intra_refresh=0 / rc_lookahead=50 / rc=crf / mbtree=1 / crf=20.0 / qcomp=0.60 / qpmin=0 / qpmax=69 / qpstep=4 / ip_ratio=1.40 / aq=1:1.00
Default : Yes
Forced : No
Matrix coefficients : BT.709
Audio #1
ID : 2
Format : AC-3
Format/Info : Audio Coding 3
Mode extension : CM (complete main)
Format settings, Endianness : Big
Muxing mode : Header stripping
Codec ID : A_AC3
Duration : 43mn 58s
Bit rate mode : Constant
Bit rate : 192 Kbps
Channel(s) : 2 channels
Channel positions : Front: L R
Sampling rate : 48.0 KHz
Bit depth : 16 bits
Compression mode : Lossy
Stream size : 60.4 MiB (5%)
Title : АРК-ТВ
Language : Russian
Default : Yes
Forced : No
Audio #2
ID : 3
Format : AC-3
Format/Info : Audio Coding 3
Mode extension : CM (complete main)
Format settings, Endianness : Big
Muxing mode : Header stripping
Codec ID : A_AC3
Duration : 43mn 58s
Bit rate mode : Constant
Bit rate : 384 Kbps
Channel(s) : 6 channels
Channel positions : Front: L C R, Side: L R, LFE
Sampling rate : 48.0 KHz
Bit depth : 16 bits
Compression mode : Lossy
Stream size : 121 MiB (9%)
Title : English
Language : English
Default : No
Forced : No
Скриншоты:
         
         
Other forum [Profile] [PM]
Display posts from previous:    
Reply to topic

The time now is: Today 03:11

All times are GMT + 3 Hours



You cannot post new topics in this forum
You cannot reply to topics in this forum
You cannot edit your posts in this forum
You cannot delete your posts in this forum
You cannot vote in polls in this forum
You cannot attach files in this forum
You cannot download files in this forum