Today is a free download without charge Download

Dragon Ball / Dragonball / Драгонболл [1986, TV, 153] DVDRip 540p Raw

Reply to topic
 
Author
Message

UndegraundMen ®

Longevity: 6 years 9 months

Posts: 25145

Торрент-статистика

Post 23-Dec-2013 23:00

[Quote]

Dragon Ball / Dragonball / Драгонболл (1986, TV, 153) 540p Raw- Жанр: приключения, комедия, фэнтези, сёнэн
Тип: TV-сериал
Количество серий: 153
Продолжительность: 25 мин.
Качество видео: DVDRip
Дата премьеры / период выхода: с 26.02.1986 по 19.04.1989
Производство/студия: Toei Animation
Автор оригинала: Торияма Акира
Режиссер: Нисио Дайсукэ
Битрейт видео: ~1000 Кбит/сек
Размер кадра: 720x540
Аудио: AAC ,2ch, 108 Кбит/сек
Звук: Японский
Тип субтитров: Raw



Описание:
Вдали от цивилизации в горной глуши живет мальчик Сон Гоку. Дедушка умер, оставив внуку в наследство чудный шар – драгонболл. И Гоку совсем невдомек, что по всему миру разбросаны ещё шесть шаров, которые, если собрать их вместе, исполнят одно заветное желание владельца.
И вот однажды к Гоку заявляется странное «существо» – девочка Бульма и начинает соблазнять героя отдать ей шар. Гоку соглашается отдать ей 4х звёздный шар только, если он пойдёт с ней вместе искать остальные 6 шаров. И вот так начинаются их приключения...
Сюжет поначалу вращается вокруг собственно Драгонболов. Со временем акцент смещается на турниры боевых искусств, тренировки перед каждым турнирами и сражения с мега-злодеями во имя спасения мира. Драгонболы же используются, по большей части, для воскрешения павших боевых товарищей, да попавших злодеям под руку мирных жителей.

Эпизоды:

001. Secret of the Dragon Ball
002. The Emperor`s Quest
003. The Nimbus Cloud of Roshi
004. Oolong the Terrible
005. Yamcha the Desert Bandit
006. Keep an Eye on the Dragon Balls
007. The Ox-King of Fire Mountain
008. The Kamehameha Wave
009. Boss Rabbit`s Magic Touch
010. The Dragon Balls are Stolen
011. The Penalty is Pinball
012. A Wish to the Eternal Dragon
013. The Legend of Goku
014. Goku`s Rival
015. Look out for Launch
016. Find that stone!
017. Milk Delivery
018. The Turtle Hermit way
019. The Tournament Begins
020. Elimination Round
021. Smells Like Trouble
022. Yamcha vs. Jackie Chun
023. Monster Beast Giran
024. Krillin`s Frantic Attack!
025. Danger from Above
026. The Grand Finals
027. Number One Under the Moon
028. The Final Blow
029. The Roaming Lake
030. Pilaf and the Mystery Force
031. Wedding Plans?
032. The Flying Fortress: Vanished!
033. The Legend of a Dragon
034. Cruel General Red
035. Cold Reception
036. Major Metallitron
037. The Ninja Murasaki is Coming!
038. Five Murasakis
039. Mysterious Android No. 8
040. Horrifying Buyon
041. The Fall of Muscle Tower
042. The Secret of Dr. Flappe
043. A Trip to the City
044. Master Thief, Hasaki
045. Danger in the Air
046. Bulma`s Bad Day
047. Kame House Found!
048. Deep Sea Blue
049. Roshi Surprise
050. The Trap is Sprung
051. Beware of Robot
052. The Pirate Treasure
053. Blue, Black, and Blue
054. Escape from Pirate Cave
055. Penguin Village
056. Strange Visitor
057. Arale vs. Blue
058. The Land of Korin
059. The Notorious Mercenary
060. Tao Attacks!
061. Korin Tower
062. Sacred Water
063. The Return of Goku
064. The Last of Mercenary Tao
065. Confront the Red Ribbon Army
066. A Real Bind
067. The End of General Red
068. The Last Dragon Ball
069. Who Is Fortuneteller Baba
070. We Are The Five Warriors
071. Deadly Battle
072. Goku`s Turn
073. The Devilmite Beam
074. The Mysterious Fifth Man
075. The Strong Ones
076. True Colors Of The Masked Man
077. Pilaf`s Tactics
078. The Eternal Dragon Rises
079. Terror And Plague
080. Goku Vs Sky Dragon
081. Goku Goes To Demon Land
082. The Rampage Of InoShikaCho
083. Which Way To Papaya Island
084. Rivals and Arrivals
085. Preliminary Peril
086. Then There Were Eight
087. Yamcha vs Tien
088. Yamcha`s Big Break
089. Full-moon Vengeance
090. The Dodon Wave
091. Counting Controversy!
092. Goku Enters The Ring
093. Tien Shinhan VS Jacky Chun
094. Stepping Down
095. Goku VS Krillin
096. Tail`s Tale
097. Final Match Goku VS Tien
098. Victory`s Edge
099. Tien`s Insurrection
100. The Spirit Canon
101. The End of the Tournament!
102. Enter King Piccolo
103. Tambourine Attacks
104. Mark of the Demon
105. Here Comes Yajirobe
106. Terrible Tambourine
107. Tien`s Atonement
108. Goku`s Revenge
109. Goku vs. Piccolo
110. Piccolo Closes In
111. Roshi`s Gambit
112. King Piccolo`s Wish
113. Siege on Chow Castle
114. Conquest and Power
115. Awaken Darkness
116. A Taste of Destiny
117. The Ultimate Sacrifice
118. Prelude to Vengeance
119. Battle Cry
120. Goku Strikes Back
121. The Biggest Crisis
122. Final Showdown
123. Lost and Found
124. Temple Above the Clouds
125. Earth`s Guardian Emerges
126. Eternal Dragon Resurrected
127. Quicker Than Lightning
128. Secret of the Woods
129. The Time Room
130. Goku`s Doll
131. Walking Their Own Ways
132. Hotter Than Lava
133. Changes
134. Preliminary Peril
135. Battle of the Eight
136. Tien Shinhan vs. Mercenary Tao
137. Anonymous Proposal
138. The Mysterious Hero
139. Rematch
140. Goku Gains Speed
141. The Four Faces of Tien
142. Kami vs Piccolo
143. Battle for the Future
144. Super Kamehameha
145. Junior No More
146. Goku`s Trap
147. Goku Hangs On
148. The Victor
149. Dress in Flames
150. The Fire-Eater
151. Outrageous Octagon
152. Mystery of the Dark World
153. The End, The Beginning
Дополнительная информация:
Отличия от имеющихся в рунете релизов: рип с большим размером картинки.

mediainfo на 1 серию

Код:
Общее
Полное имя                               : E:\1Dragon_Ball\DB001 (720x540 x264 AAC2).mp4
Формат                                   : MPEG-4
Профиль формата                          : Base Media
Идентификатор кодека                     : isom
Размер файла                             : 196 Мбайт
Продолжительность                        : 24 м.
Режим общего битрейта                    : Переменный
Общий поток                              : 1112 Кбит/сек
Дата кодирования                         : UTC 2010-08-02 06:29:47
Дата пометки                             : UTC 2010-08-02 06:29:47
Программа кодирования                    : Yamb 2.1.0.0 [http://yamb.unite-video.com]
Видео
Идентификатор                            : 1
Формат                                   : AVC
Формат/Информация                        : Advanced Video Codec
Профиль формата                          : [url=mailto:High@L4.1]High@L4.1[/url]
Параметр CABAC формата                   : Да
Параметр ReFrames формата                : 6 кадров
Идентификатор кодека                     : avc1
Идентификатор кодека/Информация          : Advanced Video Coding
Продолжительность                        : 24 м.
Продолжительность оригинала              : 24 м.
Битрейт                                  : 1000 Кбит/сек
Максимальный битрейт                     : 5150 Кбит/сек
Ширина                                   : 720 пикселей
Высота                                   : 540 пикселей
Соотношение сторон                       : 4:3
Режим частоты кадров                     : Постоянный
Частота кадров                           : 23,976 кадра/сек
Цветовое пространство                    : YUV
Субдискретизация насыщенности            : 4:2:0
Битовая глубина                          : 8 бит
Тип развёртки                            : Прогрессивная
Бит/(Пиксели*Кадры)                      : 0.107
Размер потока                            : 176 Мбайт (90%)
Размер потока оригинала                  : 176 Мбайт (90%)
Библиотека кодирования                   : x264 core 88 r1471 1144615
Настройки программы                      : cabac=1 / ref=6 / deblock=1:1:1 / analyse=0x3:0x113 / me=hex / subme=7 / psy=1 / psy_rd=0.40:0.00 / mixed_ref=1 / me_range=16 / chroma_me=1 / trellis=1 / 8x8dct=1 / cqm=0 / deadzone=21,11 / fast_pskip=1 / chroma_qp_offset=-2 / threads=12 / sliced_threads=0 / nr=0 / decimate=1 / mbaff=0 / constrained_intra=0 / bframes=5 / b_pyramid=0 / b_adapt=1 / b_bias=0 / direct=1 / wpredb=1 / wpredp=2 / keyint=250 / keyint_min=25 / scenecut=40 / intra_refresh=0 / rc_lookahead=40 / rc=2pass / mbtree=1 / bitrate=1000 / ratetol=1.0 / qcomp=0.60 / qpmin=10 / qpmax=51 / qpstep=4 / cplxblur=20.0 / qblur=0.5 / vbv_maxrate=31250 / vbv_bufsize=31250 / ip_ratio=1.40 / aq=1:0.60
Дата кодирования                         : UTC 2010-08-02 04:49:26
Дата пометки                             : UTC 2010-08-02 06:30:24
Аудио
Идентификатор                            : 2
Формат                                   : AAC
Формат/Информация                        : Advanced Audio Codec
Профиль формата                          : LC
Идентификатор кодека                     : 40
Продолжительность                        : 24 м.
Вид битрейта                             : Переменный
Битрейт                                  : 108 Кбит/сек
Максимальный битрейт                     : 148 Кбит/сек
Каналы                                   : 2 канала
Расположение каналов                     : Front: L R
Частота                                  : 48,0 КГц
Метод сжатия                             : С потерями
Размер потока                            : 19,1 Мбайт (10%)
Дата кодирования                         : UTC 2010-08-02 06:30:23
Дата пометки                             : UTC 2010-08-02 06:30:24
Скриншоты: Время раздачи: 24/7 (круглосуточно), ширина канала 10мб (08.00-01.00), 20мб (01.00-08.00)
Other forum [Profile] [PM]
Display posts from previous:    
Reply to topic

The time now is: Today 04:39

All times are GMT + 3 Hours



You cannot post new topics in this forum
You cannot reply to topics in this forum
You cannot edit your posts in this forum
You cannot delete your posts in this forum
You cannot vote in polls in this forum
You cannot attach files in this forum
You cannot download files in this forum