Сегодня идет свободное скачивание без начисления Download

Том и Джерри с озвучкой из детства (114 серий) / Tom and Jerry (114 series) (Джозеф Барбера, Уильям Ханна / Joseph Barbera, William Hanna) [1940-1967, Комедия, DVDRip] VO (ДММ)

Ответить на тему
 
Автор
Сообщение

Omen ®

Стаж: 5 лет

Сообщений: 190530

Торрент-статистика

Пост 23-Дек-2013 05:01

[Цитировать]

Том и Джерри с озвучкой из детства (114 серий) / Tom and Jerry (114 series)
Страна: США
Жанр: Комедия
Продолжительность: ~7 мин серия
Годы выпуска: 1940-1967
Режиссёр: Джозеф Барбера, Уильям Ханна / Joseph Barbera, William Hanna
Перевод: одноголосый закадровый (Студия ДММ)
Описание: Кот Том и мышонок Джерри — парочка, прославившаяся на весь мир. Уже несколько десятков лет Том гоняется за Джерри с неослабевающим азартом. Том придумывает всё новые и новые хитроумные уловки, чтобы поймать Джерри, но мышонок всё время выкручивается с не меньшей изобретательностью.
Доп. информация: Итак, наконец-таки я сделал то, что давненько обещал! Теперь можете качать и смотреть Том и Джерри, в отличном качестве, с кассетной озвучкой из детства!) Звук я брал из этой раздачи и накладывал его на серии, взятые отсюда. В отличии от этой коллекции, в сериях из моей раздачи полностью отсутствует рассинхронизация, то есть - звук не отстает от видео.
И ещё один + этой раздачи - все серии без цензуры! Не вырезаны моменты нарушающие политкорректность.
В 4-ёх сериях соотношение сторон 16:9, так как с другим соотношением эти серии не выходили.
Огромное спасибо: Olgynka - за источник звука, goldsky - за источник видео, devyanostnik 92 и vladiuha2011__ - за предоставление недостающих серий.

Список серий:

001 - Кот получает пинка
002 - Закуска среди ночи
003 - Ночь перед Рождеством
004 - Трусливый кот
005 - Собачья неприятность
006 - Кот и гулянка
007 - Кот-кегельбонист
008 - Свой среди цыплят
009 - Страдающие коты
010 - Унылая мышка
011 - Обалдевшая американская мышка
012 - Киска-ребенок
013 - Кот-стиляга
014 - Кот на миллион долларов
015 - Телохранитель
016 - Поимка собак
017 - Мышиные неприятности
018 - Мышка приходит на обед
019 - Мышь в Манхеттене
020 - Чай на двоих
021 - Тридцатая птичка
022 - Тише, пожалуйста!
023 - Весна для Тома
024 - Молочный подкидыш
025 - Ловушка счастья
026 - Крутая серенада
027 - Кот на рыбалке
028 - Приятель, работающий на полставки
029 - Кошачий концерт
030 - Джеки 11 и господин Маус
031 - Морской котик
032 - Мышь в доме
033 - Мышь-невидимка
034 - Котенок сбивает со следа
035 - Конец обидам
036 - Пожилой, заслуженный председатель Том
037 - Профессор Том
038 - Мышь уборщица
039 - Кисуля с узором в горошек
040 - Сиротинушка
041 - Высиживай свои неприятности
042 - Божественный кот
043 - Кот и водяная мышь
044 - Полюби этого щенка
045 - Дневник Джерри

046 - Теннисный чурбан
047 - Маленький шарлатан
048 - Кот субботним вечером
049 - Техасец Том
050 - Джерри и лев
051 - Секунду безопасности
052 - Кубок Голливуда
053 - Костлявый кот
054 - Кот-бильярдист
055 - Кот-казанова
056 - Джерри и золотая рыбка
057 - Племянник Джерри
058 - Сонливый Том
059 - Его мышиная пятница
060 - Намытый щенок
061 - Остроумная кошечка
062 - Кошачий гамак
063 - Летающий кот
064 - Утиный доктор
065 - Два мушкетера
066 - Поверженный котик
067 - Беспокойные тройняшки
068 - Маленький беглец
069 - Готов быть связанным
070 - Котенок-кнопка
071 - Кот-морской путешественник
072 - Конура
073 - Мышь, пропавшая без вести
074 - Джерри и Джумбо
075 - Иоганн Маус
076 - Ах, ты, мой щеночек!
077 - Просто утка
078 - Два маленьких индейца
079 - Моя жизнь с Томом
080 - Щенячья выдумка
081 - Кот-полицейский
082 - Икучий щенок
083 - Мышь-школьница
084 - Бутч-детка
085 - Мышки-Фолайс
086 - Неаполитанская мышка
087 - Грустный утенок
088 - Любимец Пиф
089 - Дотронься только, кисуля!
090 - Утка, летящая на юг
091 - Щенок на пикнике
092 - Мышь на продажу
093 - Коварные замыслы против Джерри
094 - Том и возлюбленная мушкетера
095 - Остряк-самоучка
096 - Несносный дядюшка Пекос
097 - Это моя мамочка!
098 - Летающая ведьма
099 - Яйцо и Джерри
100 - Забот полон рот
101 - Качок Том
102 - Танцующий медведь
103 - Лютая кошачья печаль
104 - Суета вокруг шашлыка
105 - Шум, гам и треск
106 - Трусливый кот
107 - Мышонок-обжора
108 - Мышонок-тореадор
109 - Фотофиниш Тома
110 - Неунывающий утенок
111 - Королевский сон
112 - Исчезающий утенок
113 - Робин Гудватёр
114 - Ангелы-хранители

Скриншоты

МОДЕРАМ: Пожалуйста, не удаляйте эту раздачу! Мною была проведена нелегкая работа... Сводил звук с видео, боролся с рассинхронизацией. Но это не главное! Главное то, что эта озвучка действительно раритетная, со старых кассет, многие смотрели этот мульт именно в этом одноголосом переводе. Поэтому, думаю многие заинтересуются. Да и вообще, на мой взгляд этот перевод самый лучший! Многоголоска, вышедшая не так давно не передает всю атмосферу ТиД, куда интересней смотреть этот мультсериал с гундосым голосом. Надеюсь убедил... Спасибо.
Качество: DVDRip
Формат: AVI
Видео: DivX, 640x480, 23.976 fps, 1595 kbps
Аудио: AC-3, 48,000 Hz, 2 ch, 192 kbps
Семпл
Все раздачи мультсериала

Подробные технические данные

ОбщееПолное имя : D:\Видео\Мультфильмы\Том и Джерри\001 - Кот получает пинка.aviФормат : AVIФормат/Информация : Audio Video InterleaveРазмер файла : 118 МбайтПродолжительность : 9 м. 10 с.Общий поток : 1796 Кбит/секПрограмма кодирования : VirtualDubModRus 1.5.10.2 (build 2542/release)Библиотека кодирования : VirtualDubMod build 2542/release
ВидеоИдентификатор : 0Формат : MPEG-4 VisualПрофиль формата : Advanced Simple@L5Параметр BVOP формата : 1Параметр QPel формата : НетПараметр GMC формата : Без точки переходаПараметр матрицы формата : Default (H.263)Режим смешивания : Сжатый битовый потокИдентификатор кодека : DX50Идентификатор кодека/Подсказка : DivX 5Продолжительность : 9 м. 10 с.Битрейт : 1595 Кбит/секШирина : 640 пикселейВысота : 480 пикселейСоотношение сторон : 4:3Частота кадров : 23,976 кадра/секЦветовое пространство : YUVСубдискретизация насыщенности : 4:2:0Битовая глубина : 8 битТип развёртки : ПрогрессивнаяМетод сжатия : С потерямиБит/(Пиксели*Кадры) : 0.217Размер потока : 105 Мбайт (89%)Библиотека кодирования : XviD 1.2.1 (UTC 2008-12-04)
АудиоИдентификатор : 1Формат : AC-3Формат/Информация : Audio Coding 3Расширение режима : CM (complete main)Параметр Endianness формата : BigИдентификатор кодека : 2000Продолжительность : 9 м. 10 с.Вид битрейта : ПостоянныйБитрейт : 192 Кбит/секКаналы : 2 каналаРасположение каналов : Front: L RЧастота : 48,0 КГцБитовая глубина : 16 битМетод сжатия : С потерямиЗадержка видео : 2 с. 0 мс.Размер потока : 12,6 Мбайт (11%)Выравнивание : Разделение по промежуткамПродолжительность промежутка : 42 мс. (1,00 видеокадр)Время предзагрузки промежутка : 500 мс.
Вне форума [Профиль] [ЛС]
Похожие темы
Форум Тема Автор Торрент Отв. Посл. сообщение
./templates/default/images/folder_dl.gif Мультфильмы Том и Джерри: Робин Гуд и Мышь-Весельчак / Tom and Jerry: Robin Hood and His Merry Mouse (Спайк Брандт / Spike Brandt, Тони Червоне / Tony Cervone) [2012, США, мультфильм, семейный, BDRemux 1080p] Omen
1 | 0

0 | 743

6

2012-11-22 10:07
Omen Последнее
./templates/default/images/folder_dl.gif Обучающее видео Сергей Брежнев | Мастер-класс по работе с цветом и тонировке (2014) PCRec (H.264) Omen
1 | 0

0 | 2102

51

2014-10-19 12:32
Omen Последнее
Показать сообщения:    
Ответить на тему

Текущее время: Сегодня 03:21

Часовой пояс: GMT + 3



Вы не можете начинать темы
Вы не можете отвечать на сообщения
Вы не можете редактировать свои сообщения
Вы не можете удалять свои сообщения
Вы не можете голосовать в опросах
Вы не можете прикреплять файлы к сообщениям
Вы не можете скачивать файлы