Today is a free download without charge Download

NG. Превосходство бегемота / The Hippo Supremacy (2012) HDTV [H.264/1080i]

Reply to topic
 
Author
Message

UndegraundMen ®

Longevity: 6 years 10 months

Posts: 25145

Торрент-статистика

Post 22-Dec-2013 16:08

[Quote]

NG. Превосходство бегемота / The Hippo Supremacy (2012) HDTV [H.264/1080i]- Страна: США
Режиссер / Телекомпания: Каролин Бретт, National Geographic
Год выпуска: 2012
Жанр: Документальный, научно-познавательный, природа
Описание:
Бегемоты реки Луангвы в Замбии - одни из самых тяжелых животных на планете, что осложняет жизнь их детенышей.
Продолжительность: 00:44:59
Качество видео: HDTV [1080i]
Перевод: Одноголосый закадровый, профессиональный (АРК·ТВ)
Видеокодек: MPEG-TS AVC/H.264
Битрейт видео: ~11,2 Мбит/сек
Размер кадра: 1920x1080 (16:9)
Аудиокодек: MP2, 2 ch
Битрейт аудио: 192 Кбит/сек

MediaInfo:

Код:
Общее
Идентификатор                            : 1 (0x1)
Полное имя                               : Превосходство бегемота. The Hippo Supremacy (2012)\Превосходство бегемота.The Hippo Supremacy (2012).ts
Формат                                   : MPEG-TS
Размер файла                             : 3,76 Гбайт
Продолжительность                        : 44 м.
Режим общего битрейта                    : Переменный
Общий поток                              : 12,0 Мбит/сек
Видео
Идентификатор                            : 321 (0x141)
Идентификатор меню                       : 1 (0x1)
Формат                                   : AVC
Формат/Информация                        : Advanced Video Codec
Профиль формата                          : [url=mailto:High@L4.0]High@L4.0[/url]
Параметр CABAC формата                   : Да
Параметр ReFrames формата                : 3 кадра
Идентификатор кодека                     : 27
Продолжительность                        : 44 м.
Битрейт                                  : 11,2 Мбит/сек
Ширина                                   : 1920 пикселей
Высота                                   : 1080 пикселей
Соотношение сторон                       : 16:9
Частота кадров                           : 25,000 кадров/сек
Стандарт вещания                         : Component
Цветовое пространство                    : YUV
Субдискретизация насыщенности            : 4:2:0
Битовая глубина                          : 8 бит
Тип развёртки                            : Чересстрочная
Порядок развёртки                        : Верхнее поле первое
Бит/(Пиксели*Кадры)                      : 0.216
Размер потока                            : 3,51 Гбайт (93%)
Основные цвета                           : BT.709
Характеристики трансфера                 : BT.709
Коэффициенты матрицы                     : BT.709
Аудио
Идентификатор                            : 401 (0x191)
Идентификатор меню                       : 1 (0x1)
Формат                                   : MPEG Audio
Версия формата                           : Version 1
Профиль формата                          : Layer 2
Идентификатор кодека                     : 3
Продолжительность                        : 44 м.
Вид битрейта                             : Постоянный
Битрейт                                  : 192 Кбит/сек
Каналы                                   : 2 канала
Частота                                  : 48,0 КГц
Метод сжатия                             : С потерями
Размер потока                            : 61,8 Мбайт (2%)
Язык                                     : English
Скриншоты:                    Время раздачи: Время раздачи: 24/7. До первых 5 скачавших.
Other forum [Profile] [PM]
Display posts from previous:    
Reply to topic

The time now is: Today 19:18

All times are GMT + 3 Hours



You cannot post new topics in this forum
You cannot reply to topics in this forum
You cannot edit your posts in this forum
You cannot delete your posts in this forum
You cannot vote in polls in this forum
You cannot attach files in this forum
You cannot download files in this forum