Сегодня идет свободное скачивание без начисления Download

Майк и Молли / Mike & Molly (Сезон 4, серия 1 из 24) (2013) WEB-DLRip [Кураж-Бамбей] (Обновляемая)

Ответить на тему
 
Автор
Сообщение

UndegraundMen ®

Стаж: 5 лет 3 месяца

Сообщений: 25871

Торрент-статистика

Пост 17-Дек-2013 00:00

[Цитировать]

Майк и Молли / Mike & Molly (Сезон 4, серия 1 из 24) (2013) WEB-DLRip (Кураж-Бамбей)- Год выпуска: 2013
Жанр: Комедия
Перевод: Одноголосый закадровый, профессиональный
Озвучка / Автор перевода: Кураж-Бамбей

Дата мировой премьеры: 4 ноября 2013
Режиссер: Джеймс Берроуз, Фил Льюис, Марк Робертс
Актеры: Билли Гарделл (Майк Биггс), Рено Уилсон (Карл Макмиллан), Мелисса Маккарти (Молли Флинн), Кэти Миксон (Виктория Флинн), Свузи Кёрц (Джойс), Нямби Нямби (Самюэль) и др.
Описание фильма:
Офицер Майк Биггс — полицейский с добрым сердцем, который искренне желает сбросить вес. Напарник Майка, офицер Карл Макмиллан, худой и болтливый всезнайка, который, несмотря на поддразнивания, поддерживает Майка на его пути к стройности и любви.
Во время одного из собраний Майк встретил Молли Флинн, милую учительницу четвертого класса, которая относится к своим пышным формам со здоровым юмором. Сделать правильный выбор для Молли не всегда просто, потому что она живет со своей сексуальной старшей сестрой Викторией и матерью Джойс. Обе они выставляют напоказ свой здоровый аппетит и стройные фигуры. Майку также приходится сталкиваться с искушением в закусочной, которую он часто посещает с Карлом. Там они познакомились с сенегальским официантом Самюэлем, для которого диета — незнакомая концепция. Для Майка и Молли, благодаря их взаимной любви к пирогам и желанию сопротивляться им, знакомство друг с другом может быть ценнее «веса».
Продолжительность: ~00:20:00 серия
Качество видео: WEB-DLRip
Сэмпл: Скачать
Видеокодек: Xvid
Битрейт видео: ~1359 Кбит/сек
Размер кадра: 720x400
Аудиокодек: MP3, 2 канала
Битрейт аудио: 128 Кбит/сек

MediaInfo:

Общее
Полное имя : D:\Сериалы\Майк и Молли\Mike and Molly - Season 4 [Kuraj-Bambey]\Mike.and.Molly.S04E01.WEB-DLRip.Kuraj-Bambey.Rus.avi
Формат : AVI
Формат/Информация : Audio Video Interleave
Размер файла : 234 Мбайт
Продолжительность : 20 м.
Общий поток : 1629 Кбит/сек
Программа кодирования : VirtualDubMod 1.5.10.3 (build 2550/release)
Библиотека кодирования : VirtualDubMod build 2550/release
Видео
Идентификатор : 0
Формат : MPEG-4 Visual
Профиль формата : Advanced Simple@L5
Параметр BVOP формата : 2
Параметр QPel формата : Нет
Параметр GMC формата : Без точки перехода
Параметр матрицы формата : Default (H.263)
Идентификатор кодека : XVID
Идентификатор кодека/Подсказка : XviD
Продолжительность : 20 м.
Битрейт : 1359 Кбит/сек
Ширина : 720 пикселей
Высота : 400 пикселей
Соотношение сторон : 16:9
Частота кадров : 23,976 кадра/сек
Цветовое пространство : YUV
Субдискретизация насыщенности : 4:2:0
Битовая глубина : 8 бит
Тип развёртки : Прогрессивная
Метод сжатия : С потерями
Бит/(Пиксели*Кадры) : 0.197
Размер потока : 195 Мбайт (83%)
Библиотека кодирования : XviD 64
Аудио #1
Идентификатор : 1
Формат : MPEG Audio
Версия формата : Version 1
Профиль формата : Layer 3
Режим : Joint stereo
Расширение режима : MS Stereo
Идентификатор кодека : 55
Идентификатор кодека/Подсказка : MP3
Продолжительность : 20 м.
Вид битрейта : Постоянный
Битрейт : 128 Кбит/сек
Каналы : 2 канала
Частота : 48,0 КГц
Метод сжатия : С потерями
Размер потока : 18,4 Мбайт (8%)
Выравнивание : Соединение по промежуткам
Продолжительность промежутка : 42 мс. (1,00 видеокадр)
Время предзагрузки промежутка : 504 мс.
Библиотека кодирования : LAME3.99r
Настройки программы : -m j -V 4 -q 3 -lowpass 17 -b 128
Аудио #2
Идентификатор : 2
Формат : MPEG Audio
Версия формата : Version 1
Профиль формата : Layer 3
Режим : Joint stereo
Расширение режима : MS Stereo
Идентификатор кодека : 55
Идентификатор кодека/Подсказка : MP3
Продолжительность : 20 м.
Вид битрейта : Постоянный
Битрейт : 128 Кбит/сек
Каналы : 2 канала
Частота : 48,0 КГц
Метод сжатия : С потерями
Размер потока : 18,4 Мбайт (8%)
Выравнивание : Соединение по промежуткам
Продолжительность промежутка : 42 мс. (1,00 видеокадр)
Время предзагрузки промежутка : 504 мс.
Библиотека кодирования : LAME3.99r
Настройки программы : -m j -V 4 -q 0 -lowpass 17 -b 128

Внимание! Раздача ведётся путём добавления новых серий. Описание обновления торрента:

Внимание! Раздача ведётся путём добавления новых серий; при каждом добавлении создётся новый торрент. Чтобы начать докачку новой серии, пользователям необходимо сделать следующее:
(1) остановить скачивание,
(2) удалить старый торрент у себя из клиента (старые серии удалять не надо),
(3) скачать новый торрент и запустить его у себя в клиенте вместо старого, при этом указать клиенту путь в старую папку куда и должно происходить скачивание новых серий.
Ваш клиент при этом должен произвести хеширование (проверку) старой папки (если не производит сам - помогите ему сделать это), и будет докачивать только те серии которых у вас ещё нет. Старые серии при этом не удаляются, а продолжают раздаваться!
Eсли вы уже удалили старые серии, то предотвратить повторную закачку старых серий можно, отжав галочку в соответсвующих местах при запуске нового торрента. По возможности, желательно не удалять старые серии как можно дольше чтобы релизёр не столько продолжал раздавать старые серии, а смог сконцентрироваться на новых
Скриншоты:
           
Вне форума [Профиль] [ЛС]
Показать сообщения:    
Ответить на тему

Текущее время: Сегодня 07:34

Часовой пояс: GMT + 3



Вы не можете начинать темы
Вы не можете отвечать на сообщения
Вы не можете редактировать свои сообщения
Вы не можете удалять свои сообщения
Вы не можете голосовать в опросах
Вы не можете прикреплять файлы к сообщениям
Вы не можете скачивать файлы