Сегодня идет свободное скачивание без начисления Download

Профессор Почемушкин [20 серий из 20] (Елена Маленкина) [2013.,Детский]WEB-DLRip [H.264/720p-LQ]

Ответить на тему
 
Автор
Сообщение

sashau ®

Пол:

Стаж: 5 лет 9 месяцев

Сообщений: 3575

Торрент-статистика

Пост 13-Дек-2013 18:55

[Цитировать]

Профессор Почемушкин - Год выпуска: 2013
Жанр: Детский
Описание:
Профессор Почемушкин – это развивающая серия игр для детей, которая поможет детям в игровой форме найти ответы на самые разнообразные вопросы, заложит навыки самостоятельности и разовьёт любознательность малыша. Почему гремит гром? Зачем слону хобот? Почему у кошки ночью светятся глаза? И с каждым днём этих "почему" в Вашем доме всё больше и больше? Вы не знаете, как ответить на все эти вопросы или не можете объяснить ребёнку так, чтобы чтобы ему было понятно? Новый мультсериал о семилетнем мальчике Серёже Почемушкине станет Вашей палочкой-выручалочкой! Серёжа очень любит познавать окружающий мир, за что получил прозвище "профессор". Будьте уверены, профессор Почемушкин даст ответы даже на самые сложные вопросы.
Режиссер: Елена Маленкина
Продолжительность: 20 x ~ 00:01:00
Качество видео: WEB-DLRip
Видеокодек: AVC
Битрейт видео: ~1777 Кбит/сек
Размер кадра: 1280x720
Аудиокодек: AAC 2.0
Битрейт аудио: 192 Кбит/сек

Содержание

Если продырявить Землю насквозь, можно ли оказаться на другой стороне
Зачем деревьям кольца
Зачем слону хобот
Как и когда появилась первая бумага
Какого цвета хамелеон
Кто придумал мыльные пузыри
Можно ли измерить окружность Земли
Откуда семечко знает, куда ему расти
Почему вода в море соленая
Почему гром всегда гремит после вспышки молнии
Почему листья желтеют
Почему от сладкого портятся зубы
Почему пони такие маленькие
Почему попугаи разговаривают
Почему стрелка компаса всегда указывает на север
Почему у жирафа длинная шея
Почему у кошек в темноте глаза светятся
Почему шахматного ферзя называют королевой
Сколько нужно времени, чтобы добраться от Земли до Луны
Что такое радуга

MI:

Общее
Полное имя : Профессор Почемушкин.mp4
Формат : MPEG-4
Профиль формата : Base Media / Version 2
Идентификатор кодека : mp42
Размер файла : 12,9 Мбайт
Продолжительность : 55 с.
Режим общего битрейта : Переменный
Общий поток : 1972 Кбит/сек
Дата кодирования : UTC 2013-07-10 08:48:14
Дата пометки : UTC 2013-07-10 08:48:14
gsst : 0
gstd : 55146
gssd : BADC23AA4HH1385202355149370
gshh : r4---sn-n8v7lnee.googlevideo.com
Видео
Идентификатор : 1
Формат : AVC
Формат/Информация : Advanced Video Codec
Профиль формата : [url=mailto:High@L3.1]High@L3.1[/url]
Параметр CABAC формата : Да
Параметр ReFrames формата : 1 кадр
Параметр GOP формата : M=1, N=60
Идентификатор кодека : avc1
Идентификатор кодека/Информация : Advanced Video Coding
Продолжительность : 55 с.
Битрейт : 1777 Кбит/сек
Максимальный битрейт : 4450 Кбит/сек
Ширина : 1280 пикселей
Высота : 720 пикселей
Соотношение сторон : 16:9
Режим частоты кадров : Постоянный
Частота кадров : 25,000 кадров/сек
Цветовое пространство : YUV
Субдискретизация насыщенности : 4:2:0
Битовая глубина : 8 бит
Тип развёртки : Прогрессивная
Бит/(Пиксели*Кадры) : 0.077
Размер потока : 11,7 Мбайт (90%)
Дата пометки : UTC 2013-07-10 08:48:16
Аудио
Идентификатор : 2
Формат : AAC
Формат/Информация : Advanced Audio Codec
Профиль формата : LC
Идентификатор кодека : 40
Продолжительность : 55 с.
Вид битрейта : Переменный
Битрейт : 192 Кбит/сек
Максимальный битрейт : 201 Кбит/сек
Каналы : 2 канала
Расположение каналов : Front: L R
Частота : 44,1 КГц
Метод сжатия : С потерями
Размер потока : 1,26 Мбайт (10%)
Заголовок : IsoMedia File Produced by Google, 5-11-2011
Дата кодирования : UTC 2013-07-10 08:48:15
Дата пометки : UTC 2013-07-10 08:48:16
Скриншоты:
         
Вне форума [Профиль] [ЛС]
Похожие темы
Форум Тема Автор Торрент Отв. Посл. сообщение
./templates/default/images/folder_dl.gif Обучающее видео Дмитрий Морозов | IPcamMaster - Профессиональное видеонаблюдение своими руками (2014) [DVD5] Varius
1 | 0

0 | 1942

38

2014-05-24 06:23
Varius Последнее
./templates/default/images/folder_dl.gif Обучающее видео [Kузьмичeв] Профессиональная ретушь [2014, RUS] Omen
1 | 0

0 | 677

16

2015-02-26 15:00
Omen Последнее
./templates/default/images/folder_dl.gif Обучающее видео Алексей Черенков | "Мастер фото". Видеокурс профессиональной фотографии (2012) CamRip Omen
1 | 0

0 | 379

18

2015-05-03 17:14
Omen Последнее
./templates/default/images/folder_dl.gif Обучающее видео Александр Крофт | Я профессиональный фотограф (2014) CamRip Omen
1 | 0

0 | 452

27

2015-05-04 13:38
Omen Последнее
./templates/default/images/folder_dl.gif Обучающее видео HighLoad | Профессиональная конференция разработчиков высоконагруженных систем HighLoad++ (2013) PCRec [H.264/720p] Omen
4 | 0

0 | 518

10

2015-06-08 19:09
Omen Последнее
./templates/default/images/folder_dl.gif Обучающее видео Уверенно говорим перед камерой и шлите ТВ-профессионалов / Talk on Camera With Self Confidence and Humilate the TV Pros [2015, онлайн-видео, HDRip, ENG] (Видеоурок) Omen
3 | 0

0 | 619

13

2015-07-09 21:00
Omen Последнее
./templates/default/images/folder_dl.gif Обучающее видео Поведение людей для специалистов технических профессий / Human Behavior for Technical People [2014, психология людей, HDRip, ENG] (Видеоурок) Omen
4 | 0

0 | 649

10

2015-07-10 00:04
Omen Последнее
./templates/default/images/folder_dl.gif Обучающее видео Виталий Куреннов, Владимир Дементьев | Профессиональная разработка на Ruby on Rails (2014) PCRec [H.264] Omen
1 | 0

0 | 1209

37

2015-08-23 18:38
Omen Последнее
./templates/default/images/folder_dl.gif Обучающее видео ITVDN | C# для профессионалов - Обновленный (2015) PCRec [H.264/720p] Omen
3 | 0

0 | 566

88

2015-09-30 22:45
Omen Последнее
./templates/default/images/folder_dl.gif Обучающее видео Java Course | Java EE. Профессиональная разработка (2015) PCRec [H.264/720p] Omen
2 | 0

0 | 653

64

2015-10-12 00:59
Omen Последнее
Показать сообщения:    
Ответить на тему

Текущее время: Сегодня 12:41

Часовой пояс: GMT + 3



Вы не можете начинать темы
Вы не можете отвечать на сообщения
Вы не можете редактировать свои сообщения
Вы не можете удалять свои сообщения
Вы не можете голосовать в опросах
Вы не можете прикреплять файлы к сообщениям
Вы не можете скачивать файлы