Сегодня идет свободное скачивание без начисления Download

Приключения Топа и Тутти (Валентина Костылева) [1978-1990.,Кукольный] [5 серий из 5] DVDRip

Ответить на тему
 
Автор
Сообщение

sashau ®

Пол:

Стаж: 5 лет 11 месяцев

Сообщений: 3569

Торрент-статистика

Пост 13-Дек-2013 18:50

[Цитировать]

Приключения Топа и Тутти - Год выпуска: 1978-1990
Жанр: Кукольный
Описание:
Обучающие мультфильмы для детей о трогательной дружбе и приключениях бегемотика Топа и леопардика Тутти по одноименным сказкам Жанны Зискиндовны Витензон.
Режиссер: Валентина Костылева
Продолжительность: 5 х ~ 00:09:00
Качество видео: DVDRip
Видеокодек: Xvid
Битрейт видео: ~1650 Кбит/сек
Размер кадра: 704х528
Аудиокодек: AC3 2.0
Битрейт аудио: 192 Кбит/сек
Сэмпл: Ссылка

Содержание

1. Ссора (1978). О трогательной дружбе большого бегемота Топа и маленького котенка Тутти, которые поссорились, но нашли в себе мужество простить друг друга.
2. День везения (1983). О застенчивом бегемоте, который жил на Краю земли и очень хотел, чтобы к нему пришли гости.
3. Большое путешествие (1987). О том, как бегемотик Топ и котенок Тутти, совершив путешествие на далекую гору,
испытали радость открытия большого и прекрасного мира.
4. Веревочка (1990). О том, сколько преград встретил бегемотик Топ, пока искал веревочку, чтобы вытащить котенка Тутти, упавшего в колодец.
5. Самое настоящее приключение (1990). О том, как котенок Тутти мешал бегемотику Топу и щеночку Рыжику отправиться плавать на плоту и какое в итоге приключение им пришлось пережить.

MI:

Общее
Полное имя : Приключения Топа и Тутти.avi
Формат : AVI
Формат/Информация : Audio Video Interleave
Размер файла : 124 Мбайт
Продолжительность : 9 м. 23 с.
Общий поток : 1847 Кбит/сек
Видео
Идентификатор : 0
Формат : MPEG-4 Visual
Профиль формата : Advanced Simple@L5
Параметр BVOP формата : 2
Параметр QPel формата : Нет
Параметр GMC формата : Без точки перехода
Параметр матрицы формата : Default (H.263)
Режим смешивания : Сжатый битовый поток
Идентификатор кодека : XVID
Идентификатор кодека/Подсказка :
Продолжительность : 9 м. 23 с.
Битрейт : 1650 Кбит/сек
Ширина : 704 пикселя
Высота : 528 пикселей
Соотношение сторон : 4:3
Частота кадров : 25,000 кадров/сек
Цветовое пространство : YUV
Субдискретизация насыщенности : 4:2:0
Битовая глубина : 8 бит
Тип развёртки : Прогрессивная
Метод сжатия : С потерями
Бит/(Пиксели*Кадры) : 0.178
Размер потока : 111 Мбайт (89%)
Библиотека кодирования : XviD 1.2.1 (UTC 2008-12-04)
Аудио
Идентификатор : 1
Формат : AC-3
Формат/Информация : Audio Coding 3
Расширение режима : CM (complete main)
Параметр Endianness формата : Big
Идентификатор кодека : 2000
Продолжительность : 9 м. 23 с.
Вид битрейта : Постоянный
Битрейт : 192 Кбит/сек
Каналы : 2 канала
Расположение каналов : Front: L R
Частота : 48,0 КГц
Битовая глубина : 16 бит
Метод сжатия : С потерями
Размер потока : 12,9 Мбайт (10%)
Выравнивание : Соединение по промежуткам
Продолжительность промежутка : 200 мс. (5,00 видеокадров)
Скриншоты:
         
Вне форума [Профиль] [ЛС]
Похожие темы
Форум Тема Автор Торрент Отв. Посл. сообщение
./templates/default/images/folder_dl.gif Архив Книжная серия | Библиотека приключений и научной фантастики (96 книг) [1936-2004] [DJVU, PDF] sashau
0 | 1

0 | 1824

6

2013-05-10 09:42
sashau Последнее
./templates/default/images/folder_dl.gif Фильмы 2011-2016 Восхождение Юпитер / Jupiter Ascending (Энди Вачовски / Andy Wachowski, Лана Вачовски / Lana Wachowski) [2015 г., Фантастика, фэнтези, боевик, приключения, WEB-DLRip] Dub [iTunes] Clavik
1 | 0

1 | 2135

94

2016-01-02 08:28
Dracula Последнее
./templates/default/images/folder_dl.gif Зарубежные сериалы Игра престолов / Game of Thrones / Сезон 5 / Полный / Серии: 10 из 10 (Алан Тейлор / Alan Taylor ...) [2015г., Фэнтези, Драма, Приключения, ..., HDTVRip] MVO (LostFilm) Omen
1 | 0

0 | 1471

45

2015-05-20 21:13
Omen Последнее
./templates/default/images/folder_dl.gif Зарубежное кино Медведь / The Bear / L\'ours (Жан-Жак Анно / Jean-Jacques Annaud) [1988, Франция, США, драма, приключения, семейный, BDRip 720p] [REMASTERED] VO (Екатеринбург Арт) + Original Fre + Sub (Rus, Ukr, Fre) Omen
1 | 0

1 | 668

4

2015-06-27 17:22
Dracula Последнее
./templates/default/images/folder_dl.gif Обучающее видео Учебный центр 1C | Использование прикладного решения 1С Розница 8.2 Редакция 2 (2015) PCRec Varius
1 | 0

0 | 614

31

2015-07-16 05:16
Varius Последнее
./templates/default/images/folder_dl.gif Фильмы 2011-2016 Макс / Maks (Боаз Якин) [2015 г., приключения, семейный, HDRip] Region_13
1 | 0

0 | 680

22

2016-01-04 15:41
Region_13 Последнее
./templates/default/images/folder_dl.gif Зарубежное кино Рукопись, найденная в Сарагосе / Rekopis znaleziony w Saragossie (Войцех Хас / Wojciech Has) [1965, Польша, фэнтези, драма, детектив, приключения, Blu-ray disc (custom) 1080p] Dub + VO + Sub Pol, Eng, Rus + Original Pol Omen
1 | 0

0 | 126

1

2016-03-11 21:00
Omen Последнее
./templates/default/images/folder_dl.gif Фильмы 2011-2016 Выживший / The Revenant (Алехандро Гонсалес Иньярриту) [2015/16, триллер, драма, приключения, BDRip] [Лицензия] DUB O.S.A.
1 | 0

0 | 2642

39

2016-04-19 10:55
O.S.A. Последнее
./templates/default/images/folder_dl.gif Фильмы 2011-2016 Изгой-один: Звёздные войны. Истории / Rogue One: A Star Wars Story (Гарет Эдвардс) [2016 г., фантастика, боевик, приключения, HDRip-AVC] DUB | iTunes Theseus
1 | 0

0 | 8465

11

2017-03-24 14:53
Theseus Последнее
./templates/default/images/folder_dl.gif Новинки (HD|DVD|BD|WEB|TV|SAT|PDTV|-Rip) Чудо-женщина / Wonder Woman (Пэтти Дженкинс) [2017, фантастика, фэнтези, боевик, приключения, WEB-DLRip-AVC] DUB | iTunes Theseus
1 | 0

0 | 39243

3

2017-08-30 20:39
Theseus Последнее
Показать сообщения:    
Ответить на тему

Текущее время: Сегодня 09:11

Часовой пояс: GMT + 3



Вы не можете начинать темы
Вы не можете отвечать на сообщения
Вы не можете редактировать свои сообщения
Вы не можете удалять свои сообщения
Вы не можете голосовать в опросах
Вы не можете прикреплять файлы к сообщениям
Вы не можете скачивать файлы