Сегодня идет свободное скачивание без начисления Download

Приключения Топа и Тутти (Валентина Костылева) [1978-1990.,Кукольный] [5 серий из 5] DVDRip

Ответить на тему
 
Автор
Сообщение

sashau ®

Пол:

Стаж: 5 лет 9 месяцев

Сообщений: 3575

Торрент-статистика

Пост 13-Дек-2013 18:50

[Цитировать]

Приключения Топа и Тутти - Год выпуска: 1978-1990
Жанр: Кукольный
Описание:
Обучающие мультфильмы для детей о трогательной дружбе и приключениях бегемотика Топа и леопардика Тутти по одноименным сказкам Жанны Зискиндовны Витензон.
Режиссер: Валентина Костылева
Продолжительность: 5 х ~ 00:09:00
Качество видео: DVDRip
Видеокодек: Xvid
Битрейт видео: ~1650 Кбит/сек
Размер кадра: 704х528
Аудиокодек: AC3 2.0
Битрейт аудио: 192 Кбит/сек
Сэмпл: Ссылка

Содержание

1. Ссора (1978). О трогательной дружбе большого бегемота Топа и маленького котенка Тутти, которые поссорились, но нашли в себе мужество простить друг друга.
2. День везения (1983). О застенчивом бегемоте, который жил на Краю земли и очень хотел, чтобы к нему пришли гости.
3. Большое путешествие (1987). О том, как бегемотик Топ и котенок Тутти, совершив путешествие на далекую гору,
испытали радость открытия большого и прекрасного мира.
4. Веревочка (1990). О том, сколько преград встретил бегемотик Топ, пока искал веревочку, чтобы вытащить котенка Тутти, упавшего в колодец.
5. Самое настоящее приключение (1990). О том, как котенок Тутти мешал бегемотику Топу и щеночку Рыжику отправиться плавать на плоту и какое в итоге приключение им пришлось пережить.

MI:

Общее
Полное имя : Приключения Топа и Тутти.avi
Формат : AVI
Формат/Информация : Audio Video Interleave
Размер файла : 124 Мбайт
Продолжительность : 9 м. 23 с.
Общий поток : 1847 Кбит/сек
Видео
Идентификатор : 0
Формат : MPEG-4 Visual
Профиль формата : Advanced Simple@L5
Параметр BVOP формата : 2
Параметр QPel формата : Нет
Параметр GMC формата : Без точки перехода
Параметр матрицы формата : Default (H.263)
Режим смешивания : Сжатый битовый поток
Идентификатор кодека : XVID
Идентификатор кодека/Подсказка :
Продолжительность : 9 м. 23 с.
Битрейт : 1650 Кбит/сек
Ширина : 704 пикселя
Высота : 528 пикселей
Соотношение сторон : 4:3
Частота кадров : 25,000 кадров/сек
Цветовое пространство : YUV
Субдискретизация насыщенности : 4:2:0
Битовая глубина : 8 бит
Тип развёртки : Прогрессивная
Метод сжатия : С потерями
Бит/(Пиксели*Кадры) : 0.178
Размер потока : 111 Мбайт (89%)
Библиотека кодирования : XviD 1.2.1 (UTC 2008-12-04)
Аудио
Идентификатор : 1
Формат : AC-3
Формат/Информация : Audio Coding 3
Расширение режима : CM (complete main)
Параметр Endianness формата : Big
Идентификатор кодека : 2000
Продолжительность : 9 м. 23 с.
Вид битрейта : Постоянный
Битрейт : 192 Кбит/сек
Каналы : 2 канала
Расположение каналов : Front: L R
Частота : 48,0 КГц
Битовая глубина : 16 бит
Метод сжатия : С потерями
Размер потока : 12,9 Мбайт (10%)
Выравнивание : Соединение по промежуткам
Продолжительность промежутка : 200 мс. (5,00 видеокадров)
Скриншоты:
         
Вне форума [Профиль] [ЛС]
Похожие темы
Форум Тема Автор Торрент Отв. Посл. сообщение
./templates/default/images/folder_dl.gif Иностранные мультфильмы ВАЛЛ·И / WALL·E (Эндрю Стэнтон / Andrew Stanton) [2008 г., США, мультфильм, фантастика, мелодрама, приключения, семейный, BDRip 1080p] Dub + MVO + AVO (Сербин) + Ukr + Original Eng + Sub (Rus, Ukr, Eng) [Локализованный видеоряд] Omen
1 | 0

0 | 939

10

2014-09-04 20:39
Omen Последнее
./templates/default/images/folder_dl.gif Фильмы 2011-2016 Восхождение Юпитер / Jupiter Ascending (Энди Вачовски / Andy Wachowski, Лана Вачовски / Lana Wachowski) [2015 г., Фантастика, фэнтези, боевик, приключения, WEB-DLRip] Dub [iTunes] Clavik
1 | 0

1 | 2006

94

2016-01-02 08:28
Dracula Последнее
./templates/default/images/folder_dl.gif Приключения и квесты Приключения барона Мюнхгаузена на Луне [P] [RUS / RUS] (2007) Omen
1 | 0

0 | 1044

9

2015-05-27 00:02
Omen Последнее
./templates/default/images/folder_dl.gif Зарубежное кино Медведь / The Bear / L\'ours (Жан-Жак Анно / Jean-Jacques Annaud) [1988, Франция, США, драма, приключения, семейный, BDRip 720p] [REMASTERED] VO (Екатеринбург Арт) + Original Fre + Sub (Rus, Ukr, Fre) Omen
2 | 0

1 | 547

3

2015-06-27 17:22
Dracula Последнее
./templates/default/images/folder_dl.gif Обучающее видео Учебный центр 1C | Использование прикладного решения 1С Розница 8.2 Редакция 2 (2015) PCRec Varius
1 | 0

0 | 518

29

2015-07-16 05:16
Varius Последнее
./templates/default/images/folder_dl.gif T Новинки (BD|HDTV|DVD) Темная башня / The Dark Tower (Николай Арсель) [2017, Ужасы, Фантастика, Фэнтези, Боевик, Приключения, Вестерн, TS 720p] Omen
2 | 0

0 | 282

22

2016-03-09 03:53
Omen Последнее
./templates/default/images/folder_dl.gif Зарубежное кино Рукопись, найденная в Сарагосе / Rekopis znaleziony w Saragossie (Войцех Хас / Wojciech Has) [1965, Польша, фэнтези, драма, детектив, приключения, Blu-ray disc (custom) 1080p] Dub + VO + Sub Pol, Eng, Rus + Original Pol Omen
0 | 1

0 | 72

0

2016-03-11 21:00
Omen Последнее
./templates/default/images/folder_dl.gif Зарубежное кино Пит и его дракон / Pete\'s Dragon (Дэвид Лоури / David Lowery) [2016, США, фэнтези, приключения, семейный, BDRip 1080p] Dub + Sub Rus, Eng + Original Eng Omen
1 | 0

0 | 598

4

2016-11-21 01:00
Omen Последнее
./templates/default/images/folder_dl.gif Новинки (HD|DVD|BD|WEB|TV|SAT|PDTV|-Rip) Меч короля Артура / King Arthur: Legend of the Sword (Гай Ричи) [2017, фэнтези, боевик, драма, приключения, BDRip-AVC] DUB | Лицензия Theseus
0 | 1

0 | 6307

7

2017-08-16 19:50
Theseus Последнее
./templates/default/images/folder_dl.gif Новинки (HD|DVD|BD|WEB|TV|SAT|PDTV|-Rip) Мумия / The Mummy (Алекс Куртцман) [2017, ужасы, фэнтези, боевик, приключения, HDRip] DUB | iTunes Theseus
0 | 1

0 | 38481

5

2017-08-30 20:10
Theseus Последнее
Показать сообщения:    
Ответить на тему

Текущее время: Сегодня 15:26

Часовой пояс: GMT + 3



Вы не можете начинать темы
Вы не можете отвечать на сообщения
Вы не можете редактировать свои сообщения
Вы не можете удалять свои сообщения
Вы не можете голосовать в опросах
Вы не можете прикреплять файлы к сообщениям
Вы не можете скачивать файлы