Сегодня идет свободное скачивание без начисления Download

Сыны Анархии / Sons of Anarchy (6-ой сезон, серия 13 из 13) (Пэрис Барклай) [2013, драма, криминал, HDTVRip] [Rus SUB] + [Original Eng]

Ответить на тему
 
Автор
Сообщение

maxkiller ®

Пол:

Стаж: 5 лет 6 месяцев

Сообщений: 284

Торрент-статистика

Пост 12-Дек-2013 19:05

[Цитировать]

--Сыны Анархии (6-ой сезон, 13-я серия) / Sons of Anarchy--

Год выпуска: 2013
Страна: США
Жанр: драма, криминал
Продолжительность: 01:20:44
Перевод: Отсутствует [английская дорожка]
Субтитры: Русские [NotaBenoid]
Режиссёры: Пэрис Барклай-В ролях: Чарли Ханнэм, Кэти Сагал, Марк Бун Джуниор, Ким Коутс, Томми Флэнаган, Мэгги Сифф, Рон Перлман, Тео Росси, Уильям Лаккинг, Райан Херст и др.-Описание: «Сыны Анархии» — сериал рассказывает о клубе байкеров, которые пытаются защитить свой городок от наркотиков и влияния из вне, хотя сами грешат торговлей оружием. Секс, наркотики и рок-н-ролл, любовь, насилие и смысл жизни – вокруг этих проблем бытия закручен сюжет «Сынов».-ImDB / Кинопоиск-Качество: HDTVRip
Формат: AVI
Видео кодек: XviD
Аудио кодек: MP3
Видео: 624x352 (1.77:1), 23.976 fps, XviD build 50 ~1037 kbps avg, 0.20 bit/pixel
Аудио: 44.100 kHz, MPEG Layer 3, 2 ch, ~128.00 kbps avg

MI

E:\INTERNET\Sons.of.Anarchy.s06e13.HDTVRip.[RUS Sub]+ orig.avi
General
Complete name : E:\INTERNET\Sons.of.Anarchy.s06e13.HDTVRip.[RUS Sub]+ orig.avi
Format : AVI
Format/Info : Audio Video Interleave
File size : 679 MiB
Duration : 1h 20mn
Overall bit rate : 1 175 Kbps
Writing application : VirtualDubMod 1.5.10.3 | www.virtualdub-fr.org || (build 2550/release)
Writing library : VirtualDubMod build 2550/release
Video #0
ID : 0
Format : MPEG-4 Visual
Format profile : Advanced Simple@L5
Format settings, BVOP : 2
Format settings, QPel : No
Format settings, GMC : No warppoints
Format settings, Matrix : Default (H.263)
Codec ID : XVID
Codec ID/Hint : XviD
Duration : 1h 20mn
Bit rate : 1 038 Kbps
Width : 624 pixels
Height : 352 pixels
Display aspect ratio : 16:9
Frame rate : 23.976 fps
Color space : YUV
Chroma subsampling : 4:2:0
Bit depth : 8 bits
Scan type : Progressive
Compression mode : Lossy
Bits/(Pixel*Frame) : 0.197
Stream size : 599 MiB (88%)
Writing library : XviD 1.2.1 (UTC 2008-12-04)
Audio #1
ID : 1
Format : MPEG Audio
Format version : Version 1
Format profile : Layer 3
Codec ID : 55
Codec ID/Hint : MP3
Duration : 1h 20mn
Bit rate mode : Constant
Bit rate : 128 Kbps
Channel(s) : 2 channels
Sampling rate : 44.1 KHz
Compression mode : Lossy
Stream size : 73.9 MiB (11%)
Alignment : Split accross interleaves
Interleave, duration : 42 ms (1.00 video frame)
Interleave, preload duration : 500 ms
Writing library : LAME3.99r
Encoding settings : -m s -V 4 -q 2 -lowpass 17 -b 128

Скриншоты

Вне форума [Профиль] [ЛС]
Показать сообщения:    
Ответить на тему

Текущее время: Сегодня 07:07

Часовой пояс: GMT + 3



Вы не можете начинать темы
Вы не можете отвечать на сообщения
Вы не можете редактировать свои сообщения
Вы не можете удалять свои сообщения
Вы не можете голосовать в опросах
Вы не можете прикреплять файлы к сообщениям
Вы не можете скачивать файлы