Сегодня идет свободное скачивание без начисления Download

Симпсоны / The Simpsons(Мэтт Гроунинг)[2001.,Комедия, Рисованная анимация, Для взрослых] (Season 13, серии 01-22 из 22) 1080p BDRip

Ответить на тему
 
Автор
Сообщение

sashau ®

Пол:

Стаж: 5 лет 9 месяцев

Сообщений: 3575

Торрент-статистика

Пост 12-Дек-2013 12:56

[Цитировать]

Симпсоны / The Simpsons - Год выпуска: 2001
Жанр: Комедия, Рисованная анимация, Для взрослых
Язык: английский, русский
Описание:
Симпсоны живут в вымышленном городе Спрингфилд, со своим обществом и историей. Гомер - отец семейства, который дает плохие советы и работает инспектором безопасности на атомной электростанции; Мардж - любящая мать и жена, старается сохранить спокойствие в семье; Барт - 10 летний хулиган; Лиза - философский 8-летний ребенок; и Мэгги - младенец, который общается посредством соски...
Режиссер: Мэтт Гроунинг
Персонажи: Гомер Симпсон, Мардж Симпсон, Барт Симпсон, Лиза Симпсон, Мэгги Симпсон
Продолжительность: ~22 мин. серия
Качество видео: BDRip
Перевод: Профессиональный (многоголосый, закадровый)
Автор перевода: REN-TV
Видеокодек: MPEG-4 AVC/H.264
Битрейт видео: ~5 418 Kbps
Размер кадра: 1440х1080 at 23.976 fps
Аудиокодек: AC3
Битрейт Аудио #1: AC-3; 48 Khz; ~192 kbps; 2 ch (Русский)
Битрейт Аудио #2: DTS; 48 Khz; ~1510 kbps; 6 ch (Английский)

MediaInfo

Complete name : The.Simpsons.s13e06.BDRip.1080p.mkv
  • Format : Matroska
  • File size : 1.12 GiB
  • Duration : 22mn 35s
  • Overall bit rate : 7 116 Kbps
  • Encoded date : UTC 2011-02-25 19:00:09
  • Writing application : mkvmerge v3.3.0 ('Language') built on Mar 24 2010 14:59:24
  • Writing library : libebml v0.8.0 + libmatroska v0.9.0
    Video #1
  • ID : 1
  • Format : AVC
  • Format/Info : Advanced Video Codec
  • Format profile : [url=mailto:High@L4.1]High@L4.1[/url]
  • Format settings, CABAC : Yes
  • Format settings, ReFrames : 4 frames
  • Format settings, GOP : M=4, N=32
  • Muxing mode : Container profile=Unknown@4.1
  • Codec ID : V_MPEG4/ISO/AVC
  • Duration : 22mn 35s
  • Bit rate : 5 418 Kbps
  • Width : 1 440 pixels
  • Height : 1 080 pixels
  • Display aspect ratio : 4:3
  • Frame rate : 23.976 fps
  • Color space : YUV
  • Chroma subsampling : 4:2:0
  • Bit depth : 8 bits
  • Scan type : Progressive
  • Bits/(Pixel*Frame) : 0.145
  • Stream size : 852 MiB (74%)
  • Writing library : x264 core 114 r1900 60ef1f8
  • Encoding settings : cabac=1 / ref=4 / deblock=1:0:0 / analyse=0x3:0x133 / me=umh / subme=8 / psy=1 / psy_rd=1.00:0.00 / mixed_ref=1 / me_range=16 / chroma_me=1 / trellis=1 / 8x8dct=1 / cqm=0 / deadzone=21,11 / fast_pskip=0 / chroma_qp_offset=-2 / threads=6 / sliced_threads=0 / nr=0 / decimate=1 / interlaced=0 / constrained_intra=0 / bframes=3 / b_pyramid=2 / b_adapt=1 / b_bias=0 / direct=1 / weightb=1 / open_gop=0 / weightp=2 / keyint=250 / keyint_min=23 / scenecut=40 / intra_refresh=0 / rc_lookahead=40 / rc=2pass / mbtree=1 / bitrate=5418 / ratetol=1.0 / qcomp=0.60 / qpmin=0 / qpmax=69 / qpstep=4 / cplxblur=20.0 / qblur=0.5 / ip_ratio=1.40 / aq=1:1.00
  • Language : English
    Audio #2
  • ID : 2
  • Format : AC-3
  • Format/Info : Audio Coding 3
  • Mode extension : CM (complete main)
  • Codec ID : A_AC3
  • Duration : 22mn 35s
  • Bit rate mode : Constant
  • Bit rate : 192 Kbps
  • Channel(s) : 2 channels
  • Channel positions : Front: L R
  • Sampling rate : 48.0 KHz
  • Stream size : 31.0 MiB (3%)
  • Language : Russian
    Audio #3
  • ID : 3
  • Format : DTS
  • Format/Info : Digital Theater Systems
  • Codec ID : A_DTS
  • Duration : 22mn 35s
  • Bit rate mode : Constant
  • Bit rate : 1 510 Kbps
  • Channel(s) : 6 channels
  • Channel positions : Front: L C R, Side: L R, LFE
  • Sampling rate : 48.0 KHz
  • Bit depth : 24 bits
  • Stream size : 244 MiB (21%)
  • Language : English

Список серий

1 - Treehouse of Horror XII
2 - The Parent Rap
3 - Homer the Moe
4 - Hunka Hunka Burns in Love
5 - The Blunder Years
6 - She of Little Faith
7 - Brawl in the Family
8 - Sweets and Sour Marge
9 - Jaws Wired Shut
10 - Half-Decent Proposal
11 - The Bart Wants What It Wants
12 - The Lastest Gun in the West
13 - The Old Man and the Key
14 - Tales from the Public Domain
15 - Blame it on Lisa
16 - Weekend at Burnsies
17 - Gump Roast
18 - I Am Furious Yellow
19 - The Sweetest Apu
20 - Little Girl in the Big Ten
21 - The Frying Game
22 - Poppa Got a Brand New Badge
Скриншоты:
           
Вне форума [Профиль] [ЛС]
Показать сообщения:    
Ответить на тему

Текущее время: Сегодня 14:02

Часовой пояс: GMT + 3



Вы не можете начинать темы
Вы не можете отвечать на сообщения
Вы не можете редактировать свои сообщения
Вы не можете удалять свои сообщения
Вы не можете голосовать в опросах
Вы не можете прикреплять файлы к сообщениям
Вы не можете скачивать файлы