Сегодня идет свободное скачивание без начисления Download

Альфа и Омега: Приключения праздничного воя / Alpha and Omega 2: A Howl-iday Adventure (Ричард Рич)(Приключения, Комедия.2013) BDRip [H.264/720p]

Ответить на тему
 
Автор
Сообщение

KirovSOFT ®

Пол:

Стаж: 5 лет 7 месяцев

Сообщений: 1348

Откуда: Кировская область -Оричи

Торрент-статистика

Пост 08-Дек-2013 20:00

[Цитировать]

Альфа и Омега: Приключения праздничного воя / Alpha and Omega 2: A Howl-iday Adventure-
Год выпуска: 2013
Жанр: Приключения, Комедия
Перевод: Многоголосый закадровый, профессиональный
Вид субтитров: Вшитые отключаемые
Язык субтитров: English, Spanish
Дата мировой премьеры: 8 октября 2013
Режиссер: Ричард Рич
Персонажи: Бен Дискин, Кейт Хиггинс, Blackie Rose, Lindsay Torrance, Liza West, Трэйси Пфау, Bill Lader, Meryl Leigh, Шон Жерардо, Chris Smith

Кейт и Хамфри и их 3 волчат, готовятся к празднованию их первой совместной зимы, когда их самый маленький детеныш, Рант, таинственным образом исчезает.
Сэмпл

Продолжительность: 00:45:08
Качество видео: BDRip
Видеокодек: MPEG-4 AVC
Битрейт видео: ~4571 kb/s
Размер кадра: 1280x720
Аудио #1: Русский AC3, 192 Kbps, 2 channels, 48.0 KHz
Аудио #2: Английский DTS, 1509Kbps, 6 channels, 48.0 KHz

MediaInfo:

Общее
Уникальный идентификатор : 207909093711235711845821604286435037024 (0x9C69D5BDE64CCA42B95E32220D5A0F60)
Полное имя : D:\Загрузки\Alpha.And.Omega.2.A.Howl-iday.Adventure.2013.P.BDRip.720p.mkv
Формат : Matroska
Версия формата : Version 4 / Version 2
Размер файла : 2,02 Гбайт
Продолжительность : 45 м.
Общий поток : 6400 Кбит/сек
Дата кодирования : UTC 2013-12-06 13:20:45
Программа кодирования : mkvmerge v6.5.0 ('Isn't she lovely') built on Oct 20 2013 12:50:05
Библиотека кодирования : libebml v1.3.0 + libmatroska v1.4.1
Видео
Идентификатор : 1
Формат : AVC
Формат/Информация : Advanced Video Codec
Профиль формата : [url=mailto:High@L4.1]High@L4.1[/url]
Параметр CABAC формата : Да
Параметр ReFrames формата : 5 кадров
Идентификатор кодека : V_MPEG4/ISO/AVC
Продолжительность : 45 м.
Битрейт : 4572 Кбит/сек
Ширина : 1280 пикселей
Высота : 720 пикселей
Соотношение сторон : 16:9
Режим частоты кадров : Постоянный
Частота кадров : 23,976 кадра/сек
Цветовое пространство : YUV
Субдискретизация насыщенности : 4:2:0
Битовая глубина : 8 бит
Тип развёртки : Прогрессивная
Бит/(Пиксели*Кадры) : 0.207
Размер потока : 1,44 Гбайт (71%)
Язык : English
Default : Да
Forced : Нет
Аудио #1
Идентификатор : 2
Формат : AC-3
Формат/Информация : Audio Coding 3
Расширение режима : CM (complete main)
Параметр Endianness формата : Big
Идентификатор кодека : A_AC3
Продолжительность : 45 м.
Вид битрейта : Постоянный
Битрейт : 192 Кбит/сек
Каналы : 2 канала
Расположение каналов : Front: L R
Частота : 48,0 КГц
Битовая глубина : 16 бит
Метод сжатия : С потерями
Размер потока : 62,0 Мбайт (3%)
Default : Да
Forced : Нет
Аудио #2
Идентификатор : 3
Формат : DTS
Формат/Информация : Digital Theater Systems
Режим : 16
Параметр Endianness формата : Big
Идентификатор кодека : A_DTS
Продолжительность : 45 м.
Вид битрейта : Постоянный
Битрейт : 1509 Кбит/сек
Каналы : 6 каналов
Расположение каналов : Front: L C R, Side: L R, LFE
Частота : 48,0 КГц
Битовая глубина : 24 бит
Метод сжатия : С потерями
Размер потока : 487 Мбайт (24%)
Язык : English
Default : Нет
Forced : Нет
Текст #1
Идентификатор : 4
Формат : PGS
Режим смешивания : zlib
Идентификатор кодека : S_HDMV/PGS
Идентификатор кодека/Информация : The same subtitle format used on BDs/HD-DVDs
Язык : English
Default : Нет
Forced : Нет
Текст #2
Идентификатор : 5
Формат : PGS
Режим смешивания : zlib
Идентификатор кодека : S_HDMV/PGS
Идентификатор кодека/Информация : The same subtitle format used on BDs/HD-DVDs
Язык : English
Default : Нет
Forced : Нет
Текст #3
Идентификатор : 6
Формат : PGS
Режим смешивания : zlib
Идентификатор кодека : S_HDMV/PGS
Идентификатор кодека/Информация : The same subtitle format used on BDs/HD-DVDs
Язык : Spanish
Default : Нет
Forced : Нет
         

_________________
Вне форума [Профиль] [ЛС]
Показать сообщения:    
Ответить на тему

Текущее время: Сегодня 08:24

Часовой пояс: GMT + 3



Вы не можете начинать темы
Вы не можете отвечать на сообщения
Вы не можете редактировать свои сообщения
Вы не можете удалять свои сообщения
Вы не можете голосовать в опросах
Вы не можете прикреплять файлы к сообщениям
Вы не можете скачивать файлы