Сегодня идет свободное скачивание без начисления Download

Невероятные приключения кота / Oggy et les cafards (Оливер Жан-Мари)(Детский, Комедия, Семейный.2013) DVDRip

Ответить на тему
 
Автор
Сообщение

KirovSOFT ®

Пол:

Стаж: 5 лет 7 месяцев

Сообщений: 1348

Откуда: Кировская область -Оричи

Торрент-статистика

Пост 08-Дек-2013 19:42

[Цитировать]

Невероятные приключения кота / Oggy et les cafards-
Год выпуска: 2013
Производство: Франция
Жанр: Детский, Комедия, Семейный
Дата мировой премьеры: 7 августа 2013
Дата российской премьеры: 26 сентября 2013, «Премиум Фильм»
Дата украинской премьеры: 14 ноября 2013, «Каскад Украина»
Дата выхода DVD релиза: 23 января 2014, «CP Дистрибуция»

Добродушный кот Огги любит поесть, поспать и помечтать о высоком. Но его вечно одолевают несносные соседи, отравляя его жизнь злыми шутками и приколами. Кот гоняется за ними с неослабевающим азартом, придумывает всё новые и новые хитроумные уловки, но увы… Покой ему только снится.
Режиссер: Оливер Жан-Мари
Продюсер: Марк Ду Понтавиче
Продолжительность: 01:22:01
Качество видео: DVDRip
Перевод: Не требуется (нет диалогов)
Вид субтитров: Отсутствуют

Видеокодек: DivX
Битрейт видео: ~1063 kb/s
Размер кадра: 720x384
Аудиокодек: MP3 2.0
Битрейт аудио: 128 kb/s

Сэмпл: Ссылка

MediaInfo

Общее
Полное имя : D:\Фильмы\Neveroyatnye.priklucheniya.kota.2013.DVDRip.700MB.avi
Формат : AVI
Формат/Информация : Audio Video Interleave
Размер файла : 704 Мбайт
Продолжительность : 1 ч. 22 м.
Общий поток : 1201 Кбит/сек
Название фильма : N
Жанр : C
Программа кодирования : V
Видео
Идентификатор : 0
Формат : MPEG-4 Visual
Профиль формата : Advanced Simple@L5
Параметр BVOP формата : 2
Параметр QPel формата : Нет
Параметр GMC формата : Без точки перехода
Параметр матрицы формата : Default (H.263)
Режим смешивания : Сжатый битовый поток
Идентификатор кодека : XVID
Идентификатор кодека/Подсказка : XviD
Продолжительность : 1 ч. 22 м.
Битрейт : 1063 Кбит/сек
Ширина : 720 пикселей
Высота : 384 пикселя
Соотношение сторон : 1,85:1
Частота кадров : 25,000 кадров/сек
Цветовое пространство : YUV
Субдискретизация насыщенности : 4:2:0
Битовая глубина : 8 бит
Тип развёртки : Прогрессивная
Метод сжатия : С потерями
Бит/(Пиксели*Кадры) : 0.154
Размер потока : 624 Мбайт (89%)
Библиотека кодирования : XviD 1.2.1 (UTC 2008-12-04)
Аудио
Идентификатор : 1
Формат : MPEG Audio
Версия формата : Version 1
Профиль формата : Layer 3
Режим : Joint stereo
Расширение режима : MS Stereo
Идентификатор кодека : 55
Идентификатор кодека/Подсказка : MP3
Продолжительность : 1 ч. 22 м.
Вид битрейта : Постоянный
Битрейт : 128 Кбит/сек
Каналы : 2 канала
Частота : 48,0 КГц
Метод сжатия : С потерями
Размер потока : 75,1 Мбайт (11%)
Выравнивание : Соединение по промежуткам
Продолжительность промежутка : 40 мс. (1,00 видеокадр)
Время предзагрузки промежутка : 504 мс.
Библиотека кодирования : LAME3.98r
Настройки программы : -m j -V 4 -q 2 -lowpass 17 -b 128
         

_________________
Вне форума [Профиль] [ЛС]
Показать сообщения:    
Ответить на тему

Текущее время: Сегодня 07:31

Часовой пояс: GMT + 3



Вы не можете начинать темы
Вы не можете отвечать на сообщения
Вы не можете редактировать свои сообщения
Вы не можете удалять свои сообщения
Вы не можете голосовать в опросах
Вы не можете прикреплять файлы к сообщениям
Вы не можете скачивать файлы