Сегодня идет свободное скачивание без начисления Download

Невероятные приключения кота / Oggy et les cafards (Оливер Жан-Мари)(Детский, Комедия, Семейный.2013) DVDRip

Ответить на тему
 
Автор
Сообщение

KirovSOFT ®

Пол:

Стаж: 5 лет 7 месяцев

Сообщений: 1348

Откуда: Кировская область -Оричи

Торрент-статистика

Пост 08-Дек-2013 19:33

[Цитировать]

Невероятные приключения кота / Oggy et les cafards-
Год выпуска: 2013
Производство: Франция
Жанр: Детский, Комедия, Семейный
Дата мировой премьеры: 7 августа 2013
Дата российской премьеры: 26 сентября 2013, «Премиум Фильм»
Дата украинской премьеры: 14 ноября 2013, «Каскад Украина»
Дата выхода DVD релиза: 23 января 2014, «CP Дистрибуция»

Добродушный кот Огги любит поесть, поспать и помечтать о высоком. Но его вечно одолевают несносные соседи, отравляя его жизнь злыми шутками и приколами. Кот гоняется за ними с неослабевающим азартом, придумывает всё новые и новые хитроумные уловки, но увы… Покой ему только снится.
Режиссер: Оливер Жан-Мари
Продюсер: Марк Ду Понтавиче
Продолжительность: 01:22:01
Качество видео: DVDRip
Перевод: Не требуется (нет диалогов)
Вид субтитров: Отсутствуют
Видеокодек: DivX
Битрейт видео: ~2169 kb/s
Размер кадра: 720x384
Аудиокодек: AC-3, 2.0
Битрейт аудио: 224 kb/s

MediaInfo

Формат : AVI
Формат/Информация : Audio Video Interleave
Профиль формата : OpenDML
Размер файла : 1,38 Гбайт
Продолжительность : 1 ч. 22 м.
Общий поток : 2406 Кбит/сек
Название фильма : N
Жанр : C
Программа кодирования : Lavf52.93.0
Видео
Идентификатор : 0
Формат : MPEG-4 Visual
Профиль формата : Simple@L1
Параметр BVOP формата : Нет
Параметр QPel формата : Нет
Параметр GMC формата : Без точки перехода
Параметр матрицы формата : Default (H.263)
Идентификатор кодека : DIVX
Идентификатор кодека/Информация : Project Mayo
Идентификатор кодека/Подсказка : DivX 4
Продолжительность : 1 ч. 22 м.
Битрейт : 2169 Кбит/сек
Ширина : 720 пикселей
Высота : 384 пикселя
Соотношение сторон : 1,875
Частота кадров : 23,976 кадра/сек
Цветовое пространство : YUV
Субдискретизация насыщенности : 4:2:0
Битовая глубина : 8 бит
Тип развёртки : Прогрессивная
Метод сжатия : С потерями
Бит/(Пиксели*Кадры) : 0.327
Размер потока : 1,24 Гбайт (90%)
Библиотека кодирования : Lavc52.108.0
Аудио
Идентификатор : 1
Формат : AC-3
Формат/Информация : Audio Coding 3
Расширение режима : CM (complete main)
Идентификатор кодека : 2000
Продолжительность : 1 ч. 22 м.
Вид битрейта : Постоянный
Битрейт : 224 Кбит/сек
Каналы : 2 канала
Расположение каналов : Front: L R
Частота : 48,0 КГц
Битовая глубина : 16 бит
Метод сжатия : С потерями
Размер потока : 131 Мбайт (9%)
Выравнивание : Соединение по промежуткам
Продолжительность промежутка : 32 мс. (0,77 видеокадр)
Время предзагрузки промежутка : 64 мс.
         

_________________
Вне форума [Профиль] [ЛС]
Похожие темы
Форум Тема Автор Торрент Отв. Посл. сообщение
./templates/default/images/folder_dl.gif Зарубежное кино Невероятный Бёрт Уандерстоун / The Incredible Burt Wonderstone (Дон Скардино / Don Scardino) [2013, США, комедия, BDRip 720p] MVO (Blu-ray) + MVO (BaiBako) + Sub Rus + Original Eng Omen
1 | 0

0 | 386

12

2013-06-30 04:55
Omen Последнее
Показать сообщения:    
Ответить на тему

Текущее время: Сегодня 17:37

Часовой пояс: GMT + 3



Вы не можете начинать темы
Вы не можете отвечать на сообщения
Вы не можете редактировать свои сообщения
Вы не можете удалять свои сообщения
Вы не можете голосовать в опросах
Вы не можете прикреплять файлы к сообщениям
Вы не можете скачивать файлы