Сегодня идет свободное скачивание без начисления Download

Город гангстеров / Mob City (2013) WEB-DL [720р] (сезон: 1, серия 1) [LostFilm] (обновляемая)

Ответить на тему
 
Автор
Сообщение

UndegraundMen ®

Стаж: 5 лет 8 месяцев

Сообщений: 25860

Торрент-статистика

Пост 08-Дек-2013 11:04

[Цитировать]

Город гангстеров / Mob City (2013) WEB-DL [720р] [LostFilm] (обновляемая)- Русское название: Город гангстеров
Оригинальное название: Mob City
Год выпуска: 2013
Страна: США / TNT Originals
Жанр: триллер, драма, криминал, детектив-Режиссер: Фрэнк Дарабонт, Гай Ферленд
Актеры: Джон Бернтал, Эдвард Бёрнс, Майло Вентимилья, Нил МакДонаф, Алекса Давалос, Джеффри ДеМанн, Роберт Неппер, Джереми Люк, Грегори Итцин, Иддо Голдберг-Описание фильма:
Реальная история многолетнего конфликта между департаментом полиции Лос-Анджелеса под руководством Уильяма Паркера и безжалостных преступников во главе с Микки Коэном, боксёром, который взошёл на вершину криминального мира этого города.-Продолжительность: 00:45:00
Перевод: Профессиональный (многоголосый)
Субтитры: Вшитые отключаемые
Язык субтитров: Русский (Full), Английский (Full)- -Качество: WEB-DL [720p]
Видеокодек: MPEG4/H.264 AVC
Размер кадра: 1280x720
Битрейт видео: ~3 997 Kbps
Аудио#1: [RUS] AC3 5.1; 48 kHz, 384 Кбит/сек; 16-bits [LostFilm]
Аудио#2: [ENG] AC3 5.1; 48 kHz, 384 Кбит/сек; 16-bits [Оригинал]

MediaInfo

Код:
General
Unique ID                                : 183095652872687904112740544439648583577 (0x89BEF0A779928075B78EB17C3964FF99)
Complete name                            : F:\Mob.City.2013.WEB-DL.720p\Mob.City.S01E01.720p.rus.LostFilm.TV.mkv
Format                                   : Matroska
Format version                           : Version 2
File size                                : 1.64 GiB
Duration                                 : 48mn 13s
Overall bit rate                         : 4 862 Kbps
Encoded date                             : UTC 2013-12-07 20:30:37
Writing application                      : mkvmerge v5.8.0 ('No Sleep / Pillow') built on Sep  2 2012 15:37:04
Writing library                          : libebml v1.2.3 + libmatroska v1.3.0
Video
ID                                       : 1
Format                                   : AVC
Format/Info                              : Advanced Video Codec
Format profile                           : [url=mailto:High@L3.1]High@L3.1[/url]
Format settings, CABAC                   : No
Format settings, ReFrames                : 2 frames
Codec ID                                 : V_MPEG4/ISO/AVC
Duration                                 : 48mn 13s
Bit rate                                 : 3 997 Kbps
Width                                    : 1 280 pixels
Height                                   : 720 pixels
Display aspect ratio                     : 16:9
Frame rate                               : 23.976 fps
Color space                              : YUV
Chroma subsampling                       : 4:2:0
Bit depth                                : 8 bits
Scan type                                : Progressive
Bits/(Pixel*Frame)                       : 0.181
Stream size                              : 1.35 GiB (82%)
Language                                 : English
Default                                  : Yes
Forced                                   : No
Color primaries                          : BT.709-5, BT.1361, IEC 61966-2-4, SMPTE RP177
Transfer characteristics                 : BT.709-5, BT.1361
Matrix coefficients                      : BT.709-5, BT.1361, IEC 61966-2-4 709, SMPTE RP177
Audio #1
ID                                       : 2
Format                                   : AC-3
Format/Info                              : Audio Coding 3
Mode extension                           : CM (complete main)
Format settings, Endianness              : Big
Codec ID                                 : A_AC3
Duration                                 : 48mn 13s
Bit rate mode                            : Constant
Bit rate                                 : 384 Kbps
Channel(s)                               : 6 channels
Channel positions                        : Front: L C R, Side: L R, LFE
Sampling rate                            : 48.0 KHz
Bit depth                                : 16 bits
Compression mode                         : Lossy
Stream size                              : 132 MiB (8%)
Title                                    : MVO LostFilm
Language                                 : Russian
Default                                  : Yes
Forced                                   : No
Audio #2
ID                                       : 3
Format                                   : AC-3
Format/Info                              : Audio Coding 3
Mode extension                           : CM (complete main)
Format settings, Endianness              : Big
Codec ID                                 : A_AC3
Duration                                 : 48mn 13s
Bit rate mode                            : Constant
Bit rate                                 : 384 Kbps
Channel(s)                               : 6 channels
Channel positions                        : Front: L C R, Side: L R, LFE
Sampling rate                            : 48.0 KHz
Bit depth                                : 16 bits
Compression mode                         : Lossy
Stream size                              : 132 MiB (8%)
Language                                 : English
Default                                  : No
Forced                                   : No
Text #1
ID                                       : 4
Format                                   : UTF-8
Codec ID                                 : S_TEXT/UTF8
Codec ID/Info                            : UTF-8 Plain Text
Title                                    : Nota
Language                                 : Russian
Default                                  : No
Forced                                   : No
Text #2
ID                                       : 5
Format                                   : UTF-8
Codec ID                                 : S_TEXT/UTF8
Codec ID/Info                            : UTF-8 Plain Text
Title                                    : CC
Language                                 : English
Default                                  : No
Forced                                   : No
Скриншоты:-          -
-

Внимание! Раздача ведётся путём добавления новых серий

Внимание! Раздача ведётся путём добавления новых серий; при каждом добавлении создаётся новый торрент.
Чтобы начать докачку новой серии, пользователям необходимо сделать следующее:
1. Остановить скачивание;
2. Удалить старый торрент у себя из клиента (старые серии удалять не надо);
3. Скачать новый торрент и запустить его у себя в клиенте вместо старого, при этом указать клиенту путь в старую папку куда и должно происходить скачивание новых серий. Ваш клиент при этом должен произвести хеширование (проверку) старой папки и будет докачивать только те серии, которых у вас ещё нет. Старые серии при этом не удаляются, а продолжают раздаваться! Eсли вы уже удалили старые серии, то предотвратить повторную закачку старых серий можно, отжав галочку в соответствующих местах при запуске нового торрента.
-
Вне форума [Профиль] [ЛС]
Похожие темы
Форум Тема Автор Торрент Отв. Посл. сообщение
./templates/default/images/folder_dl.gif Приключения и квесты Small Town Terrors 3 Galdors Bluff Sammleredition / Террор в городке 3 Блеф Галдора Коллекционное издание [P] [RUS] (2015) Omen
4 | 0

0 | 1301

21

2015-06-13 15:00
Omen Последнее
Показать сообщения:    
Ответить на тему

Текущее время: Сегодня 07:11

Часовой пояс: GMT + 3



Вы не можете начинать темы
Вы не можете отвечать на сообщения
Вы не можете редактировать свои сообщения
Вы не можете удалять свои сообщения
Вы не можете голосовать в опросах
Вы не можете прикреплять файлы к сообщениям
Вы не можете скачивать файлы