Сегодня идет свободное скачивание без начисления Download

Отряд «Антитеррор» / Подразделение / The Unit (2008-2009) HDRip (сезон 4, серии 1-22 из 22) (ст. Русский дубляж)

Ответить на тему
 
Автор
Сообщение

UndegraundMen ®

Стаж: 5 лет 4 месяца

Сообщений: 25870

Торрент-статистика

Пост 28-Ноя-2013 23:05

[Цитировать]

Отряд «Антитеррор» / Подразделение / The Unit (2008-2009) HDRip (сезон 4, серии 1-22 из 22) (ст. Русский дубляж)- Год выпуска: 2008-2009
Жанр: Боевик
Перевод: Профессиональный многоголосый закадровый (объединение «Русский дубляж» для телеканала «Перец»)
Релиз группа: NovaFilm

Режиссер: Стефан Депауль
Актеры: Одри Мэри Андерсон, Дэннис Хэйсбер, Эбби Браммел, Реджина Тейлор, Мишель Ирби, Макс Мартини, Скотт Фолей, Роберт Патрик, Демона Барнс
Описание фильма:
Фильм повествует о секретной команде агентов Спецназа, работающих под прикрытием. О том, как они, рискуя своими жизнями, проводят спецоперации и защищают мирных жителей. Вместе с героями сериала зрители пересекут пустыни Африки, джунгли Индонезии и побывают в самых горячих точках мира. В процессе развития сюжета зрители увидят, как герои учатся доверять и полагаться друг на друга в опасных жизненных ситуациях. Вторая сюжетная линия фильма – женская. Это история семей главных героев, их переживаний и твердости духа, которые помогают им хранить тепло домашнего очага в отсутствии любимых мужей.
Продолжительность: ~00:44:00 серия
Качество видео: HDRip
Сэмпл: Скачать
Все релизы сериала
Видеокодек: XVID
Битрейт видео: ~964kbps
Размер кадра: 640x352
Аудио 1: MP3 128kbps 2ch (Русский)
Аудио 2: MP3 128kbps 2ch (Английский)

MEDIAINFO

Format : AVI
Format/Info : Audio Video Interleave
File size : 392 MiB
Duration : 44mn 12s
Overall bit rate mode : Variable
Overall bit rate : 1 239 Kbps
Writing application : VirtualDubMod 1.5.10.2 (build 2542/release)
Writing library : VirtualDubMod build 2542/release
Video
ID : 0
Format : MPEG-4 Visual
Format profile : Advanced Simple@L5
Format settings, BVOP : 1
Format settings, QPel : No
Format settings, GMC : No warppoints
Format settings, Matrix : Default (H.263)
Muxing mode : Packed bitstream
Codec ID : XVID
Codec ID/Hint : XviD
Duration : 44mn 12s
Bit rate : 964 Kbps
Width : 640 pixels
Height : 352 pixels
Display aspect ratio : 16:9
Frame rate : 23.976 fps
Color space : YUV
Chroma subsampling : 4:2:0
Bit depth : 8 bits
Scan type : Progressive
Compression mode : Lossy
Bits/(Pixel*Frame) : 0.179
Stream size : 305 MiB (78%)
Writing library : XviD 1.2.1 (UTC 2008-12-04)
Audio #1
ID : 1
Format : MPEG Audio
Format version : Version 1
Format profile : Layer 3
Mode : Joint stereo
Mode extension : MS Stereo
Codec ID : 55
Codec ID/Hint : MP3
Duration : 44mn 12s
Bit rate mode : Constant
Bit rate : 128 Kbps
Channel(s) : 2 channels
Sampling rate : 48.0 KHz
Compression mode : Lossy
Stream size : 40.5 MiB (10%)
Alignment : Aligned on interleaves
Interleave, duration : 42 ms (1.00 video frame)
Interleave, preload duration : 504 ms
Audio #2
ID : 2
Format : MPEG Audio
Format version : Version 1
Format profile : Layer 3
Mode : Joint stereo
Mode extension : MS Stereo
Codec ID : 55
Codec ID/Hint : MP3
Duration : 44mn 12s
Bit rate mode : Variable
Bit rate : 128 Kbps
Channel(s) : 2 channels
Sampling rate : 48.0 KHz
Compression mode : Lossy
Stream size : 40.7 MiB (10%)
Alignment : Aligned on interleaves
Interleave, duration : 24 ms (0.58 video frame)
Interleave, preload duration : 143 ms
Writing library : LAME3.96r
Encoding settings : -m j -V 4 -q 3 -lowpass 17.5 --abr 128
Скриншоты:
       
Время раздачи: 24/7
Вне форума [Профиль] [ЛС]
Показать сообщения:    
Ответить на тему

Текущее время: Сегодня 13:50

Часовой пояс: GMT + 3



Вы не можете начинать темы
Вы не можете отвечать на сообщения
Вы не можете редактировать свои сообщения
Вы не можете удалять свои сообщения
Вы не можете голосовать в опросах
Вы не можете прикреплять файлы к сообщениям
Вы не можете скачивать файлы